Марсіянин [Розширена версія] / The Martian [Extended Cut] (2015) 1080p H.265 Ukr/Eng | Sub Ukr/Eng

Нові коментарі

Нова тема   Відповісти
Автор Повідомлення
ukr_anonymous 
Попереджень: 1
Попереджень: 1 


З нами з: 16.04.18
Востаннє: 16.02.19
Повідомлень: 233

2018-06-26 13:22  
Марсіянин [Розширена версія] / The Martian [Extended Cut] (2015) 1080p H.265 Ukr/Eng | Sub Ukr/Eng

Марсіянин [Розширена версія] / The Martian [Extended Cut] (2015) 1080p H.265 Ukr/Eng | Sub Ukr/Eng


Жанр: фантастика, комедія, пригодницький, драма
Країна: США, Велика Британія



Кінокомпанія: Twentieth Century Fox Film Corporation, TSG Entertainment, Scott Free Productions
Режисер: Рідлі Скотт
Актори: Метт Деймон, Джесіка Честейн, Крістен Віґ, Джеф Деніелс, Кейт Мара, Майкл Пенья, Шон Бін, Себастьян Стен, Чіветел Еджіофор, Маккензі Девіс, Дональд Ґловер

Сюжет:
Марк Вотні - один з членів експедиції "Арес-3" на Марс. Щоб уникнути загибелі людей під час лютої бурі, було прийнято рішення всю місію евакуювати. Однак не всі встигли вчасно покинути червону планету. На Землі прийшли до висновку, що Марк Вотні трагічно загинув під час сильної бурі, хоча насправді він живий. У нього найважча місія в історії людства: вижити на чужій планеті одному, з обмеженою кількістю продуктів і без можливості зв'язатися з домом. До наступної місії на Марс потрібно чекати як мінімум чотири роки. Марку доведеться використовувати всю свою кмітливість і навички, щоб не тільки повідомити про те, що він не помер, але і постаратися зберегти своє життя...


Тривалість: 02:31:20 [Розширена версія] - порівняння з театральною версією
Якість:
Відео:
кодек: H.265 (HEVC)
розмір кадру: 1920 х 800
бітрейт: 5 193 кб/с
бітова глибина: 10 біт
Увага! Перед завантаженням переконайтесь, що ваш пристрій відтворення (та/або ПЗ) підтримує H.265 (HEVC)

Аудіо # 1:
мова: українська
переклад: професійний дубльований
кодек: 5.1
бітрейт: 448 кб/с

Аудіо # 2:
мова: англійська
переклад: оригінал
кодек: 5.1
бітрейт: 448 кб/с

Субтитри # 1:
мова: українська (форсовані - на розширені моменти)(переклад виконано з оригіналу)
тип: програмні (м'які)
формат: *.smi

Субтитри # 2:
мова: англійська (повні)
тип: програмні (м'які)
формат: *.srt
Info
General
Unique ID : 58885969932747993181433661441860362164 (0x2C4D0678BC45A7A5F4DE0C523232DFB4)
Complete name : E:\Video\The Martian [Extended Cut] (2015) 1080p H.265 [UKR_ENG].
Format :
Format version : Version 4 / Version 2
File size : 6.44 GiB
Duration : 2 h 31 min
Overall bit rate : 6 091 kb/s
Movie name : The Martian [Extended Cut]
Encoded date : UTC 2018-06-22 20:38:58
Writing application : v22.0.0 ('At The End Of The World') 64-bit
Writing library : libebml v1.3.5 + v1.4.8
Cover : Yes
Attachments : Cover.jpg

Video
ID : 1
Format : HEVC
Format/Info : High Efficiency Video Coding
Format profile : Main [email protected]@High
Codec ID : V_MPEGH/ISO/HEVC
Duration : 2 h 31 min
Bit rate : 5 193 kb/s
Width : 1 920 pixels
Height : 800 pixels
Display aspect ratio : 2.40:1
Frame rate mode : Constant
Frame rate : 23.976 (24000/1001) FPS
Color space : YUV
Chroma subsampling : 4:2:0
Bit depth : 10 bits
Bits/(Pixel*Frame) : 0.141
Stream size : 5.49 GiB (85%)
Writing library : x265 2.7+340-aa9102400f24:[Windows][GCC 8.0.1][64 bit] 10bit
Encoding settings : cpuid=1049583 / frame-threads=4 / numa-pools=4 / wpp / no-pmode / no-pme / no-psnr / no-ssim / log-level=2 / input-csp=1 / input-res=1920x800 / interlace=0 / total-frames=217718 / level-idc=41 / high-tier=1 / uhd-bd=0 / ref=5 / no-allow-non-conformance / no-repeat-headers / annexb / no-aud / no-hrd / info / hash=0 / no-temporal-layers / open-gop / min-keyint=23 / keyint=240 / gop-lookahead=0 / bframes=8 / b-adapt=2 / b-pyramid / bframe-bias=0 / rc-lookahead=40 / lookahead-slices=4 / scenecut=40 / radl=0 / no-intra-refresh / ctu=64 / min-cu-size=8 / rect / amp / max-tu-size=32 / tu-inter-depth=3 / tu-intra-depth=3 / limit-tu=4 / rdoq-level=1 / dynamic-rd=0.00 / no-ssim-rd / signhide / no-tskip / nr-intra=0 / nr-inter=0 / no-constrained-intra / no-strong-intra-smoothing / max-merge=3 / limit-refs=2 / limit-modes / me=3 / subme=7 / merange=57 / temporal-mvp / weightp / weightb / no-analyze-src-pics / deblock=-3:-3 / no-sao / no-sao-non-deblock / rd=4 / no-early-skip / rskip / no-fast-intra / no-tskip-fast / no-cu-lossless / no-b-intra / no-splitrd-skip / rdpenalty=0 / psy-rd=2.00 / psy-rdoq=1.00 / no-rd-refine / no-lossless / cbqpoffs=0 / crqpoffs=0 / rc=crf / crf=18.0 / qcomp=0.65 / qpstep=4 / stats-write=0 / stats-read=0 / vbv-maxrate=50000 / vbv-bufsize=50000 / vbv-init=0.9 / crf-max=0.0 / crf-min=0.0 / ipratio=1.40 / pbratio=1.30 / aq-mode=1 / aq-strength=1.00 / cutree / zone-count=0 / no-strict-cbr / qg-size=32 / no-rc-grain / qpmax=69 / qpmin=0 / no-const-vbv / sar=1 / overscan=0 / videoformat=5 / range=0 / colorprim=1 / transfer=1 / colormatrix=1 / chromaloc=0 / display-window=0 / max-cll=0,0 / min-luma=0 / max-luma=1023 / log2-max-poc-lsb=8 / vui-timing-info / vui-hrd-info / slices=1 / no-opt-qp-pps / no-opt-ref-list-length-pps / no-multi-pass-opt-rps / scenecut-bias=0.05 / no-opt-cu-delta-qp / no-aq-motion / no-hdr / no-hdr-opt / no-dhdr10-opt / no-idr-recovery-sei / analysis-reuse-level=5 / scale-factor=0 / refine-intra=0 / refine-inter=0 / refine-mv=0 / no-limit-sao / ctu-info=0 / no-lowpass-dct / refine-mv-type=0 / copy-pic=1 / max-ausize-factor=1.0 / no-dynamic-refine / no-single-sei
Language : English
Default : Yes
Forced : No
Color range : Limited
Color primaries : BT.709
Transfer characteristics : BT.709
Matrix coefficients : BT.709

Audio #1
ID : 2
Format : AC-3
Format/Info : Audio Coding 3
Codec ID : A_AC3
Duration : 2 h 31 min
Bit rate mode : Constant
Bit rate : 448 kb/s
Channel(s) : 6 channels
Channel positions : Front: L C R, Side: L R, LFE
Sampling rate : 48.0 kHz
Frame rate : 31.250 FPS (1536 SPF)
Bit depth : 16 bits
Compression mode : Lossy
Stream size : 485 MiB (7%)
Title : DUB
Language : Ukrainian
Service kind : Complete Main
Default : Yes
Forced : No

Audio #2
ID : 3
Format : AC-3
Format/Info : Audio Coding 3
Codec ID : A_AC3
Duration : 2 h 31 min
Bit rate mode : Constant
Bit rate : 448 kb/s
Channel(s) : 6 channels
Channel positions : Front: L C R, Side: L R, LFE
Sampling rate : 48.0 kHz
Frame rate : 31.250 FPS (1536 SPF)
Bit depth : 16 bits
Compression mode : Lossy
Stream size : 485 MiB (7%)
Title : Original
Language : English
Service kind : Complete Main
Default : No
Forced : No

Text #1
ID : 4
Format : UTF-8
Codec ID : S_TEXT/UTF8
Codec ID/Info : UTF-8 Plain Text
Duration : 2 h 25 min
Bit rate : 11 b/s
Count of elements : 236
Stream size : 12.0 KiB (0%)
Title : Forced
Language : Ukrainian
Default : Yes
Forced : No

Text #2
ID : 5
Format : UTF-8
Codec ID : S_TEXT/UTF8
Codec ID/Info : UTF-8 Plain Text
Duration : 2 h 25 min
Bit rate : 61 b/s
Count of elements : 2092
Stream size : 66.0 KiB (0%)
Title : Full
Language : English
Default : No
Forced : No

Menu
00:00:00.000 : :Chapter 01
00:03:22.285 : :Chapter 03
00:10:15.156 : :Chapter 05
00:15:24.590 : :Chapter 07
00:18:25.187 : :Chapter 09
00:21:58.817 : :Chapter 11
00:24:52.532 : :Chapter 13
00:29:17.130 : :Chapter 15
00:32:01.085 : :Chapter 17
00:34:45.541 : :Chapter 19
00:40:08.155 : :Chapter 21
00:42:48.315 : :Chapter 23
00:47:50.075 : :Chapter 25
00:51:12.736 : :Chapter 27
00:58:03.396 : :Chapter 29
01:01:41.614 : :Chapter 31
01:04:24.944 : :Chapter 33
01:08:54.254 : :Chapter 35
01:11:54.101 : :Chapter 37
01:16:33.505 : :Chapter 39
01:22:05.503 : :Chapter 41
01:26:19.715 : :Chapter 43
01:37:47.653 : :Chapter 45
01:44:36.478 : :Chapter 47
01:50:38.381 : :Chapter 49
01:53:22.670 : :Chapter 51
01:59:17.566 : :Chapter 53
02:03:51.006 : :Chapter 55
02:07:32.352 : :Chapter 57
02:14:24.723 : :Chapter 59
02:20:48.397 : :Chapter 61
02:23:11.832 : :Chapter 63
02:31:20.404 : :Chapter 64
Скріншоти



Джерело:
Особиста оцінка: 10 - без зайвих вагань рекомендую всім!


ЗАЛИШАЙТЕСЬ ЯКОМОГА ДОВШЕ НА РОЗДАЧІ!
ЗАВАНТАЖИВ САМ - ДАЙ ЗАВАНТАЖИТИ ІНШИМ


 Трекер:    Зареєстрований   

Завантажити / скачати фільм українською



відео для новачків



 Зареєстрований:   2018-06-26 13:22
 Розмір:   6.44 GB 
 Оцінка фільму:   9.3/10 (Голосів: 18)
   
Інші релізи
   Марсіянин [Розширена версія] / The Martian [Extended Cut] (2015) UHD 4K 2160p Ukr/Eng | Sub Ukr/Eng Babamin  4 / 0   14.88 GB   2017-09-29 16:44 
   Марсіянин / The Martian (2015) UHD Remux 4K 2160p Ukr/Eng | Sub Ukr/Eng Babamin  2 / 0   40.29 GB   2017-09-12 12:04 
   Марсіянин [Розширена версія] / The Martian [Extended Cut] (2015) AVC Ukr/Eng | Sub Ukr/Eng Kris  13 / 0   4.47 GB   2017-07-15 19:26 
   Марсіянин [Розширена версія] / The Martian [Extended Cut] (2015) Ukr | Sub Ukr Demrandir  6 / 0   2.43 GB   2017-07-10 13:55 
   Марсіянин [Розширена версія] / The Martian [Extended Cut] (2015) [5.1 ] Український дубляж + вставки оригіналу | Sub Ukr Demrandir  0 / 0   485 MB   2017-07-10 13:39 
   Марсіянин / The Martian (2015) 720p-mini (60 fps) Drool  2 / 0   5.54 GB   2016-01-19 13:49 
   Марсіянин / The Martian (2015) AVC Ukr/Eng | Sub Ukr/Eng BASTERD-94  11 / 0   2.91 GB   2016-01-13 22:30 
   Марсіянин / The Martian (2015) Remux 1080p Ukr/Eng | Sub Ukr/Eng famous37  3 / 0   32.09 GB   2016-01-13 20:14 
   Марсіянин / The Martian (2015) 720p-mini Drool  3 / 0   2.63 GB   2016-01-12 23:01 
   Марсіянин / The Martian (2015) 1080p Ukr/Eng | Sub Ukr/Eng 11FrYkT  9 / 0   16.09 GB   2016-01-09 23:04 
   Марсіянин / The Martian (2015) 720p Ukr/Eng | Sub Ukr/Eng 11FrYkT  9 / 0   7.09 GB   2016-01-09 22:46 
   Марсіянин / The Martian (2015) Ukr/Eng | Sub Ukr/Eng Gelios  13 / 0   2.18 GB   2016-01-09 22:40 
   Марсіянин / The Martian (2015) 1080p 3D Ukr/Eng | Sub Ukr/Eng [Half SideBySide] -VipeR-  4 / 0   13.13 GB   2016-01-03 17:25 
integral 
Новенький


З нами з: 16.03.09
Востаннє: 13.02.19
Повідомлень: 1

2018-06-26 15:59  
А яка різниця між звичайною і розширеною версією? Додаткові сцени?
Wowatorrent 
Поважний учасник


З нами з: 23.03.16
Востаннє: 17.02.19
Повідомлень: 161

2018-06-26 16:17  
Кумедно було, коли він кисень видихав))
ukr_anonymous 
Попереджень: 1
Попереджень: 1 


З нами з: 16.04.18
Востаннє: 16.02.19
Повідомлень: 233

2018-06-26 20:17  
lexxai 
Свій


З нами з: 04.02.10
Востаннє: 15.02.19
Повідомлень: 108

2018-06-27 21:00  
До інформації: на старенькому Android Set Top Box MXQ S805 - показує це H265. (Amlogic S805) KODI 16.1.
Але 10 біт схоже дає артефакти на напівтонах.

ukr_anonymous 
Попереджень: 1
Попереджень: 1 


З нами з: 16.04.18
Востаннє: 16.02.19
Повідомлень: 233

2018-06-29 18:28  
lexxai
А якщо поставити Mx Player? Він ніби всеїдний.

sai7602 
Новенький


З нами з: 06.02.12
Востаннє: 10.02.19
Повідомлень: 4

2018-07-14 19:14  
забули перекласти частину тексту
Ваш часовий пояс: GMT + 2 Години

Нова тема   Відповісти