Лютий / February / The Blackcoats Daughter (2015) Eng | sub Ukr

Нові коментарі

Нова тема   Відповісти
Автор Повідомлення
ukrrku 
Частий відвідувач


З нами з: 24.03.09
Востаннє: 22.07.19
Повідомлень: 25

2018-06-26 12:26  
Лютий / February / The Blackcoats Daughter (2015) Eng | sub Ukr

Лютий / February / The Blackcoats Daughter (2015) Eng | sub Ukr


Жанр: жахи, трилер, драма
Країна: США, Канада



Кінокомпанія: Paris Film, Travelling Picture Show Company, The Unbroken Pictures, Zed Filmworks
Режисер: Оз Перкінс
Актори: Емма Робертс, Кірнан Шипка, Лорен Холлі, Джеймс Римар, Люсі Бойнтон

Сюжет:
Дві дівчини Кейт і Роуз залишаються одні в престижній інтернат-школі для дівчаток, коли батьки не в змозі забрати їх на зимові канікули. Темні, жахливі бачення починають переслідувати Кейт в той час як Роуз спостерігає в жаху, як молодою дівчиною опановує невидима нечиста сила.


Тривалість: 01:34:27
Якість:
Відео:
кодек: H,264
розмір кадру: 720 x 404
бітрейт: 1 647 кб/с

Аудіо:
мова: англійська
переклад: оригінал
кодек: 2.0
бітрейт: 224 кб/с

Субтитри:
мова: українська (власний переклад)
тип: програмні (м'які)
формат: *.srt
Скріншоти






Info

General
Complete name : The.Blackcoats.Daughter.2015.BluRay.H264..mp4
Format : MPEG-4
Format profile : Base Media
Codec ID : isom (isom/iso2/avc1/mp41)
File size : 1.24 GiB
Duration : 1 h 34 min
Overall bit rate : 1 878 kb/s
Writing application : Lavf57.25.100

Video
ID : 1
Format : AVC
Format/Info : Advanced Video Codec
Format profile : [email protected]
Format settings : CABAC / 4 Ref Frames
Format settings, CABAC : Yes
Format settings, ReFrames : 4 frames
Codec ID : avc1
Codec ID/Info : Advanced Video Coding
Duration : 1 h 34 min
Bit rate : 1 647 kb/s
Nominal bit rate : 2 000 kb/s
Width : 720 pixels
Height : 404 pixels
Display aspect ratio : 16:9
Frame rate mode : Constant
Frame rate : 24.000 FPS
Color space : YUV
Chroma subsampling : 4:2:0
Bit depth : 8 bits
Scan type : Progressive
Bits/(Pixel*Frame) : 0.236
Stream size : 1.09 GiB (88%)
Writing library : core 146 r2538 121396c
Encoding settings : cabac=1 / ref=3 / deblock=1:0:0 / analyse=0x3:0x133 / me=hex / subme=7 / psy=1 / psy_rd=1.00:0.00 / mixed_ref=1 / me_range=16 / chroma_me=1 / trellis=1 / 8x8dct=1 / cqm=0 / deadzone=21,11 / fast_pskip=1 / chroma_qp_offset=-2 / threads=6 / lookahead_threads=1 / sliced_threads=0 / nr=0 / decimate=1 / interlaced=0 / bluray_compat=0 / constrained_intra=0 / bframes=3 / b_pyramid=2 / b_adapt=1 / b_bias=0 / direct=1 / weightb=1 / open_gop=0 / weightp=2 / keyint=250 / keyint_min=25 / scenecut=40 / intra_refresh=0 / rc_lookahead=40 / rc=2pass / mbtree=1 / bitrate=2000 / ratetol=1.0 / qcomp=0.60 / qpmin=10 / qpmax=51 / qpstep=4 / cplxblur=20.0 / qblur=0.5 / ip_ratio=1.40 / aq=1:1.00

Audio
ID : 2
Format :
Format/Info : Advanced Audio Codec
Format profile : LC
Codec ID : mp4a-40-2
Duration : 1 h 34 min
Bit rate mode : Constant
Bit rate : 224 kb/s
Channel(s) : 2 channels
Channel(s)_Original : 6 channels
Channel positions : Front: L C R, Side: L R, LFE
Sampling rate : 48.0 kHz
Frame rate : 46.875 FPS (1024 SPF)
Compression mode : Lossy
Stream size : 151 MiB (12%)
Language : unk
Default : Yes
Alternate group : 1
Джерело:
Особиста оцінка: 9 - давно не бачив настільки якісне кіно


Золотий реліз (завантажене не впливає на рейтинг)
 Трекер:    Зареєстрований   

Завантажити / скачати фільм українською



відео для новачків



 Зареєстрований:   2018-06-27 12:30
 Розмір:   1.24 GB 
 Оцінка фільму:   9/10 (Голосів: 1)
   
ukrrku 
Частий відвідувач


З нами з: 24.03.09
Востаннє: 22.07.19
Повідомлень: 25

2018-06-26 14:31  
Думка про сенс
Від себе хотів би сказати, що фантастичні події в стрічці - це лише прикриття. Насправді фільм про ВТРАТУ і те як дитина не в змозі з цим впоратися

11FrYkT 
Модератор відео


З нами з: 20.02.11
Востаннє: 21.08.19
Повідомлень: 6141

2018-06-26 15:49  
ukrrku написано:
Bits/(Pixel*Frame) : 0.068

ukrrku написано:
rc=2pass / mbtree=1 / bitrate=1500

Цитата:
2pass: значення Bits/(Pixel*Frame) має бути не меншим, ніж 0.12, для анімації - 0.08

замініть відео на якісне
ukrrku написано:
бітрейт: 11005 кб/с

не такий
ukrrku написано:
кодек: 5.1

ні 2.0
ukrrku написано:
Субтитри я перекладав сам, будь ласка, зробить золото.

про це вказується в темі а не в повідомленнях

bot 
робот


З нами з: 30.09.07
Востаннє: 26.05.05
Повідомлень: 21790

2018-06-27 13:38  
Тему перенесено з Неоформлене відео до форуму Фільми


11FrYkT

Igormeta 
Новенький


З нами з: 31.10.16
Востаннє: 21.08.19
Повідомлень: 7

2019-02-28 18:45  
Субтитри не вмикаються. KMPlayer
Ваш часовий пояс: GMT + 2 Години

Нова тема   Відповісти