Ульотні лунатики / Loonatics Unleashed (Сезон 1-2) (2005) 1080p 2xUkr/Eng | sub Eng

Нові коментарі

Нова тема   Відповісти
Автор Повідомлення
sergiyko.5 
VIP


З нами з: 25.02.16
Востаннє: 26.05.19
Повідомлень: 2295

2018-06-26 11:57  
Ульотні лунатики / Loonatics Unleashed (Сезон 1-2) (2005) 1080p 2xUkr/Eng | sub Eng


Ульотні лунатики / Loonatics Unleashed (Сезон 1-2) (2005) 1080p 2xUkr/Eng | sub Eng

Жанр: Комедія, екшен, пародія, фантастика, пригоди
Країна: США
Кіностудія / кінокомпанія: Warner Bros. Animation
Режисер: Ден Фосетта, Кенні Томпкінс, Курт Волстед, Клінт Тейлор, Ендрю Остін
Актори (які озвучували англійською): Чарлі Шлеттер, Джессіка Дікікко, Джейсон Марсден, Роб Полсен, Кевін Майкл Річардсон, Кенді Міло

Сюжет:
У 2772 на планету Акметрополіс впав метеор і зрушив її з первісної осі. Однак планета не зруйнувалася, а вибухова хвиля вивільнила надприродну космічну енергію, яка наділила деяких мешканців планети надздібностями ....



Тривалість: 00:21:00 (Загалом 26 серій з 26)
Якість:

Відео: кодек: розмір кадру: 1920 х 1080 бітрейт: 6000 кб/с
Аудіо # 1: мова: українська переклад: багатоголосий закадровий кодек: 2.0 бітрейт: 192 кб/с Озвучення:
Аудіо # 2: мова: українська переклад: багатоголосий закадровий кодек: 2.0 бітрейт: 192 кб/с Озвучення:
Аудіо # 3: мова: англійська переклад: оригінал кодек: E- 2.0 бітрейт: 224 кб/с

Субтитри: мова: англійська тип: програмні (м'які) формат: *.srt

Примітка:
1. У серіях 7,8 першого сезону немає озвучки від Нового каналу.
2. У серіях 6,13 другого сезону немає озвучки від Нового каналу.
3. У серії 13 другого сезону не озвучено 1 хв 24 сек, вставлено оригінальну озвучку.
Перелік серій

Сезон 1
01 Льодовиковий період - Loonatics on Ice
02 Атака ласунів
03 Темніше за чорний оксамит
04 Грозовий перевал
05 У підземеллі
06 Другий удар комети
07 Весь світ мій цирк
08 Масивні неприємності
09 Атака Сайфера
10 Загроза Мастер-Майд
11 Дежа-вю
12 Акмегедон. Ч.1
13 Акмегедон. Ч.2

Сезон 2
01
02
03
04
05 Родинний бізнес
06 Капітан Дак
07 Апокаліпсо
08 Мисливець
09 Незвані космічні гості
10 Пінкстер
11 Музикант-лиходій
12 Падіння плянети Бланк. Ч.1
13 У пошуках Твітумса. Ч.2
Інформація про файл:
General
Unique ID : 17666641261393904959201377127330133851 (0xD4A78A9E202676089A4F3AB5202B75B)
Complete name : E:\MULTFILMS\Loonatics Unleashed 1080p \Loonatics Unleashed S01 1080p \Loonatics.Unleashed.S01E01.Loonatics.on.Ice.1080p..
Format :
Format version : Version 4 / Version 2
File size : 973 MiB
Duration : 20 min 27 s
Overall bit rate mode : Variable
Overall bit rate : 6 646 kb/s
Movie name : Loonatics Unleashed S01 1080p by sergiyko
Encoded date : UTC 2018-06-26 08:46:58
Writing application : v24.0.0 ('Beyond The Pale') 64-bit
Writing library : libebml v1.3.6 + v1.4.9

Video
ID : 1
Format : AVC
Format/Info : Advanced Video Codec
Format profile : [email protected]
Format settings : CABAC / 4 Ref Frames
Format settings, CABAC : Yes
Format settings, ReFrames : 4 frames
Codec ID : V_MPEG4/ISO/AVC
Duration : 20 min 27 s
Bit rate mode : Variable
Bit rate : 6 036 kb/s
Maximum bit rate : 15.0 Mb/s
Width : 1 920 pixels
Height : 1 080 pixels
Display aspect ratio : 16:9
Frame rate mode : Constant
Frame rate : 23.976 (24000/1001) FPS
Color space : YUV
Chroma subsampling : 4:2:0
Bit depth : 8 bits
Scan type : Progressive
Bits/(Pixel*Frame) : 0.121
Stream size : 884 MiB (91%)
Title : S01E01 Loonatics on Ice
Writing library : core 148 r2623 d5b2374
Encoding settings : cabac=1 / ref=4 / deblock=1:-1:-1 / analyse=0x3:0x133 / me=umh / subme=9 / psy=1 / psy_rd=1.00:0.15 / mixed_ref=1 / me_range=24 / chroma_me=1 / trellis=2 / 8x8dct=1 / cqm=0 / deadzone=21,11 / fast_pskip=1 / chroma_qp_offset=-3 / threads=34 / lookahead_threads=5 / sliced_threads=0 / nr=150 / decimate=1 / interlaced=0 / bluray_compat=0 / constrained_intra=0 / bframes=8 / b_pyramid=2 / b_adapt=2 / b_bias=0 / direct=3 / weightb=1 / open_gop=0 / weightp=2 / keyint=120 / keyint_min=61 / scenecut=0 / intra_refresh=0 / rc_lookahead=120 / rc=crf / mbtree=1 / crf=18.0 / qcomp=0.60 / qpmin=0 / qpmax=69 / qpstep=4 / vbv_maxrate=15000 / vbv_bufsize=31250 / crf_max=0.0 / nal_hrd=vbr / filler=0 / ip_ratio=1.40 / aq=3:1.00
Language : English
Default : Yes
Forced : No
Color range : Limited
Color primaries : BT.709
Transfer characteristics : BT.709
Matrix coefficients : BT.709

Audio #1
ID : 2
Format : AC-3
Format/Info : Audio Coding 3
Codec ID : A_AC3
Duration : 20 min 27 s
Bit rate mode : Constant
Bit rate : 192 kb/s
Channel(s) : 2 channels
Channel positions : Front: L R
Sampling rate : 48.0 kHz
Frame rate : 31.250 FPS (1536 SPF)
Bit depth : 16 bits
Compression mode : Lossy
Stream size : 28.1 MiB (3%)
Title : MOV | Новий канал
Language : Ukrainian
Service kind : Complete Main
Default : Yes
Forced : Yes

Audio #2
ID : 3
Format : AC-3
Format/Info : Audio Coding 3
Codec ID : A_AC3
Duration : 20 min 27 s
Bit rate mode : Constant
Bit rate : 192 kb/s
Channel(s) : 2 channels
Channel positions : Front: L R
Sampling rate : 48.0 kHz
Frame rate : 31.250 FPS (1536 SPF)
Bit depth : 16 bits
Compression mode : Lossy
Stream size : 28.1 MiB (3%)
Title : MOV | QTV
Language : Ukrainian
Service kind : Complete Main
Default : No
Forced : No

Audio #3
ID : 4
Format : E-AC-3
Format/Info : Enhanced Audio Coding 3
Codec ID : A_EAC3
Duration : 20 min 27 s
Bit rate mode : Constant
Bit rate : 224 kb/s
Channel(s) : 2 channels
Channel positions : Front: L R
Sampling rate : 48.0 kHz
Frame rate : 187.500 FPS (256 SPF)
Compression mode : Lossy
Stream size : 32.8 MiB (3%)
Title : Original
Language : English
Service kind : Complete Main
Default : No
Forced : No

Text
ID : 5
Format : UTF-8
Codec ID : S_TEXT/UTF8
Codec ID/Info : UTF-8 Plain Text
Duration : 17 min 47 s
Bit rate : 58 b/s
Count of elements : 290
Stream size : 7.59 KiB (0%)
Language : English
Default : No
Forced : No
Скріншоти:


Автор запиcу: Ігор Вінський
Автор зведення: sergiyko



Бронзовий реліз (на рейтинг впливає 75% завантаженого)
 Трекер:    Зареєстрований   

Завантажити / скачати мультфільм українською



відео для новачків



 Зареєстрований:   2018-08-05 15:11
 Розмір:   23.51 GB 
 Оцінка мультсеріалу:   8.3/10 (Голосів: 6)
   
torrentdownloader 
Новенький


З нами з: 27.05.17
Востаннє: 30.10.18
Повідомлень: 7

2018-07-11 22:22  
Круто! Давай ще
sergiyko.5 
VIP


З нами з: 25.02.16
Востаннє: 26.05.19
Повідомлень: 2295

2018-08-01 15:27  
Додав всі серії до першого сезону.

Увага! У серії 7,8 немає озвучки від Нового каналу.

sergiyko.5 
VIP


З нами з: 25.02.16
Востаннє: 26.05.19
Повідомлень: 2295

2018-08-05 15:13  
Додав серії до другого сезону.

Увага! В серіях 6,13 немає озвучки від Нового каналу.

На сьогодні це весь матеріал, що є в наявності, оновлень не передбачається. Приємного перегляду!

neskvikif 
Новенький


З нами з: 07.10.09
Востаннє: 23.05.19
Повідомлень: 6

2019-03-12 11:41  
UP UP UP UP
Ваш часовий пояс: GMT + 2 Години

Нова тема   Відповісти