Софія Прекрасна / Sofia the First (Сезон 4) (2017) 720p Ukr/Eng

Нові коментарі

Нова тема   Відповісти
Автор Повідомлення
sergiyko.5 
Забанено
Забанено


З нами з: 25.02.16
Востаннє: 29.10.20
Повідомлень: 3648

2018-06-26 09:58  
Софія Прекрасна / Sofia the First (Сезон 4) (2017) 720p Ukr/Eng


Софія Прекрасна / Sofia the First (Сезон 4) (2017) 720p Ukr/Eng

Жанр: мюзикл, фентезі, сімейний
Країна: США
Кінокомпанія: Disney Television Animation, Walt Disney Productions
Режисер: Джемі Мітчелл, Сем Рігел, Ларрі Лейчлітер

Мультфільм дубльовано студією «LeDoyen» на замовлення «Disney Character Voices International» у 2018 році.

Перекладач: Надія Бойван
Режисер дубляжу: Людмила Ардельян
Текст пісен: Роман Кисельов, Ілля Чернілевський
Музичний керівник: Тетяна Піроженко

Ролі озвучували: Галина Дубок — Софія Прекрасна, Олег Александров — принц Джеймс, Єлизавета Зіновенко — принцеса Ембер, Катерина Качан — королева Міранда, Андрій Мостренко — король Роланд, Михайло Войчук — Бейлівік, Олег Лепенець — Клевер, Дмитро Завадський — Седрик, Володимир Кокотунов — Вормвуд, Колодязь, Олена Узлюк — Марла, Марія Нікітенко — Люсінда, Катерина Сергєєва — Міс Нетл, Саша, Максим Кондратюк — Гіліам, Мінімус, Андрій Бойко — Калід, Андрій Терещук — Дезмонд, Софія Лозіна — Вівіан, Максим Чумак — Х'юго, Людмила Ардельян — Тіллі, Електра, Андрій Соболєв — Бартлбі, Сергій Юрченко — Максвел, Сергій Солопай — Фінєган, Володимир Канівець — Рекс

Сюжет:
В одному з далеких, найкрасивіших та неймовірно чарівних королівств, де дива трапляються на кожному кроці, гармонійно поєднуючись із веселощами, живе юна принцеса Софія. Нещодавно її мама вийшла заміж за короля, і так Софія стала принцесою. А щоб достойно носити корону, їй треба багато чому ще навчитися. До того ж у навчання входять не тільки правила королівського етикету, а й володіння магією. Допомагатимуть принцесі її давні, вірні друзі – говіркі звірятка. А істинно королівський шарм полонить серця нових друзів і родичів.




Тривалість: 1 серія: 23:56 (цілком серій: 26)
Якість:

Відео: кодек: розмір кадру: 1280 х 720 бітрейт: 3400 кб/с
Аудіо # 1: мова: українська переклад: професійний дубльований кодек: 2.0 бітрейт: 192 кб/с
Аудіо # 2: мова: англійська переклад: оригінал кодек: 2.0 бітрейт: 125 кб/с
Джерело озвучення:
Перелік серій
01 Day Of The Sorcerers
02 The Secret Library. Tale Of The Eternal Torch
03 The Crown Of Blossoms
04 Pin the Blame on the Genie
05 The Mystic Isles
06 The Mystic Isles: The Princess and the Protector
07 The Royal Dragon
08 The Mystic Isles: The Mare of the Mist
09 Through the Looking Back Glass
10 Princess Jade
11 Ivy's True Colors
12 Too Cute to Spook
13 Pirated Away
14 The Mystic Isles. The Falcons Eye
15 The Mystic Isles: The Great Pretender
16 The Mystic Isles: A Very Mystic Wassailia
17 The Birthday Wish
18 In Cedric We Trust
19 The Mystic Isles. A Hero for the Hoodwinks
20 The Mystic Isles. Undercover Fairies
21 A Royal Wedding
22 The Royal School Fair
23 The Lost Pyramid
24 Return to Merroway Cove
25 The Elf Situation
26 Sofia the First. Forever Royal
Інформація про файл:
General
Unique ID : 32133843396475369918094794216818182165 (0x182CC0CCA3BB8F510503A4FA046D8815)
Complete name : E:\MULTFILMS\Sofia the First\Sofia the First 720p\Sofia the First S04 720p\Sofia.the.First.S04E01.Day.Of.The.Sorcerers.720p..
Format :
Format version : Version 4 / Version 2
File size : 622 MiB
Duration : 23 min 56 s
Overall bit rate : 3 632 kb/s
Movie name : Sofia the First S04 720p by sergiyko
Encoded date : UTC 2018-06-26 06:49:56
Writing application : v24.0.0 ('Beyond The Pale') 64-bit
Writing library : libebml v1.3.6 + v1.4.9

Video
ID : 1
Format : AVC
Format/Info : Advanced Video Codec
Format profile : [email protected]
Format settings : CABAC / 2 Ref Frames
Format settings, CABAC : Yes
Format settings, ReFrames : 2 frames
Codec ID : V_MPEG4/ISO/AVC
Duration : 23 min 55 s
Bit rate : 3 360 kb/s
Width : 1 280 pixels
Height : 720 pixels
Display aspect ratio : 16:9
Frame rate mode : Constant
Frame rate : 23.976 (23976/1000) FPS
Original frame rate : 24.000 FPS
Color space : YUV
Chroma subsampling : 4:2:0
Bit depth : 8 bits
Scan type : Progressive
Bits/(Pixel*Frame) : 0.152
Stream size : 567 MiB (91%)
Title : S04E01 Day Of The.Sorcerers
Writing library : core 148 r2579M 73ae2d1
Encoding settings : cabac=1 / ref=2 / deblock=1:0:0 / analyse=0x3:0x113 / me=hex / subme=2 / psy=1 / psy_rd=1.00:0.00 / mixed_ref=0 / me_range=16 / chroma_me=1 / trellis=0 / 8x8dct=1 / cqm=0 / deadzone=21,11 / fast_pskip=1 / chroma_qp_offset=0 / threads=4 / lookahead_threads=1 / sliced_threads=0 / nr=250 / decimate=1 / interlaced=0 / bluray_compat=0 / stitchable=1 / constrained_intra=0 / bframes=0 / weightp=1 / keyint=250 / keyint_min=24 / scenecut=40 / intra_refresh=0 / rc_lookahead=10 / rc=2pass / mbtree=1 / bitrate=3360 / ratetol=1.0 / qcomp=0.60 / qpmin=5 / qpmax=69 / qpstep=4 / cplxblur=20.0 / qblur=0.5 / ip_ratio=1.40 / aq=1:1.00
Language : English
Default : Yes
Forced : No

Audio #1
ID : 2
Format : AC-3
Format/Info : Audio Coding 3
Codec ID : A_AC3
Duration : 23 min 56 s
Bit rate mode : Constant
Bit rate : 192 kb/s
Channel(s) : 2 channels
Channel positions : Front: L R
Sampling rate : 48.0 kHz
Frame rate : 31.250 FPS (1536 SPF)
Bit depth : 16 bits
Compression mode : Lossy
Delay relative to video : -42 ms
Stream size : 32.9 MiB (5%)
Title : DUB | ПлюсПлюс
Language : Ukrainian
Service kind : Complete Main
Default : Yes
Forced : Yes

Audio #2
ID : 3
Format :
Format/Info : Advanced Audio Codec
Format profile : HE- / LC
Format settings : Implicit
Codec ID : A_AAC-2
Duration : 23 min 56 s
Bit rate : 127 kb/s
Channel(s) : 2 channels
Channel positions : Front: L R
Sampling rate : 48.0 kHz / 24.0 kHz
Frame rate : 23.438 FPS (1024 SPF)
Compression mode : Lossy
Delay relative to video : -42 ms
Stream size : 21.7 MiB (3%)
Title : Original
Language : English
Default : No
Forced : No
Скріншоти:


Автор запиcу/зведення: sergiyko



Бронзовий реліз (на рейтинг впливає 75% завантаженого)
 Трекер:    Зареєстрований   

Завантажити / скачати мультфільм українською



відео для новачків



 Зареєстрований:   2018-10-12 13:00
 Розмір:   17.13 GB 
 Оцінка мультсеріалу:   8.2/10 (Голосів: 10)
   
sergiyko.5 
Забанено
Забанено


З нами з: 25.02.16
Востаннє: 29.10.20
Повідомлень: 3648

2018-06-28 11:54  
Додав 2,3 серії.
KoreAnn 
Новенький


З нами з: 31.10.16
Востаннє: 15.04.21
Повідомлень: 1

2018-07-07 17:13  
Дуже дякую!
sergiyko.5 
Забанено
Забанено


З нами з: 25.02.16
Востаннє: 29.10.20
Повідомлень: 3648

2018-07-24 13:52  
Додав нові серії.
Найближчим часом оновлення не очікується, телеканал почав показ старих серій.

DDBj 
VIP


З нами з: 09.01.12
Востаннє: 19.04.21
Повідомлень: 783

2018-07-24 14:23  
Дуже вдячний від себе й синочка. Якщо маєте можливість, запишіть прем'єрний фінальний четвертий сезон "Джека і Піратів з Небувалії". Сьогодні був другий епізод.
http://plus-plus.tv/dyvys/programy/multserial/dzheyk-i-pirati-nebuvaliyi-398464.html

sergiyko.5 
Забанено
Забанено


З нами з: 25.02.16
Востаннє: 29.10.20
Повідомлень: 3648

2018-07-24 15:07  
DDBj написано:
запишіть прем'єрний фінальний четвертий сезон "Джека і Піратів з Небувалії"


Пишу.

sergiyko.5 
Забанено
Забанено


З нами з: 25.02.16
Востаннє: 29.10.20
Повідомлень: 3648

2018-10-12 13:01  
Додав відсутні серії до повного сезону. Приємного перегляду!
Ваш часовий пояс: GMT + 2 Години

Нова тема   Відповісти