Операція Ентеббе / Entebbe (2018) 1080p Ukr/Eng | Sub Eng

Нові коментарі

Нова тема   Відповісти
Автор Повідомлення
staf777 
Попереджень: 1
Попереджень: 1 


З нами з: 16.11.16
Востаннє: 16.10.18
Повідомлень: 1632

2018-06-25 22:10  
Операція Ентеббе / Entebbe (2018) 1080p Ukr/Eng | Sub Eng


Альтернативний постер




Жанр: драма, кримінал, трилер
Країна: Велика Британія, США



Кінокомпанія: Participant Media, Pellikola, Working Title Films
Режисер: Жозе Паділья
Актори: Розамунд Пайк, Даніель Брюль, Едді Марсан, Бронтіс Ходоровскі, Нонсо Анозі, Бен Шнетцер, Марк Іванір, Дені Меноше, Пітер Салліван, Анхель Бунані

Сюжет:
Політичний трилер, знятий за реальними подіями. У 1976 році було захоплено літак компанії “Ейр Франс”, який здійснював рейс з Тель-Авіва до Парижа. Щоб врятувати пасажирів, було проведено одну з найвідчайдушніших операцій в історії. У центрі сюжету – німецькі активісти Брігітта Кульман (Розамунд Пайк) та Вільфрід Бьозе (Деніель Брюль), які разом з Народним фронтом звільнення Палестини, викрадають літак. Озброєні терористи направляють літак в місто Ентеббе, Уганда, та вимагають 5 мільйонів доларів і звільнення палестинських в’язнів в Ізраїлі. У разі відмови вони погрожують почати вбивати заручників Прем’єр-міністр Ізраїлю Іцхак Рабин має від терористів лише тиждень на роздуми. Йому треба вирішити: йти на поступки і переговори чи спробувати організувати, здається, неможливу спробу порятунку. Коли час на роздуми та дипломатію спливає, приймають рішення рятувати заручників. Але учасники цієї місії не мають права на помилку.


Тривалість: 01:47:00
Якість: 1080p

Відео:
кодек:
розмір кадру: 1920x804
бітрейт: 13.0 Mб/с

Аудіо # 1:
мова: українська
переклад: професійний дубльований | студія AAA-Sound
кодек: 2.0 [stereo]
бітрейт: 192 кб/с
Інформація про дубляж
Переклад: Івана Жежери та Юлії Когут
Режисер дубляжу та звукорежисер перезапису: Олександр Єфімов
Ролі дублювали: Дмитро Гаврилов, Юлія Перенчук, Андрій Альохін, Катерина Брайковська, Михайло Кришталь, Ольга Радчук, Дмитро Завадський, Ярослав Чорненький, Катерина Буцька, Андрій Федінчик, Роман Чорний, Наталя Денисенко, Юрій Ребрик, Іван Розін, Євген Пашин, Павло Скороходько, Кирило Нікітенко та інші.
Фільм дубльовано студією AAA-Sound у 2018 році на замовлення компанії Кіноманія.



Аудіо # 2:
мова: англійська
переклад: оригінал
кодек: 5.1
бітрейт: 448 кб/с

Субтитри:
мова: англійська
тип: програмні (м'які)
формат: *.srt
Info
Код:

General
Unique ID                   : 248586812053358012611037236370942035954 (0xBB04141951950B50B568BEA957E587F2)
Complete name               : H:\Entebbe (2018) 1080p [Ukr][Eng][Sub Eng][Hurtom].
Format                      :
Format version              : Version 4 / Version 2
File size                   : 10.2 GiB
Duration                    : 1 h 47 min
Overall bit rate            : 13.6 Mb/s
Movie name                  : Entebbe (2018) 1080p [Ukr][Eng][Sub Eng][Hurtom]
Encoded date                : UTC 2018-06-25 19:27:02
Writing application         : v9.8.0 ('Kuglblids') 64bit
Writing library             : libebml v1.3.4 + v1.4.5
Cover                       : Yes
Attachments                 : cover.jpg

Video
ID                          : 1
Format                      : AVC
Format/Info                 : Advanced Video Codec
Format profile              : [email protected]
Format settings             : CABAC / 5 Ref Frames
Format settings, CABAC      : Yes
Format settings, ReFrames   : 5 frames
Codec ID                    : V_MPEG4/ISO/AVC
Duration                    : 1 h 47 min
Bit rate                    : 13.0 Mb/s
Width                       : 1 920 pixels
Height                      : 804 pixels
Display aspect ratio        : 2.40:1
Frame rate mode             : Constant
Frame rate                  : 23.976 (24000/1001) FPS
Color space                 : YUV
Chroma subsampling          : 4:2:0
Bit depth                   : 8 bits
Scan type                   : Progressive
Bits/(Pixel*Frame)          : 0.351
Stream size                 : 9.68 GiB (95%)
Writing library             : core 152 r2851kMod ba24899
Encoding settings           : cabac=1 / ref=5 / deblock=1:-3:-3 / analyse=0x3:0x133 / me=umh / subme=11 / psy=1 / fade_compensate=0.00 / psy_rd=1.05:0.00 / mixed_ref=1 / me_range=48 / chroma_me=1 / trellis=2 / 8x8dct=1 / cqm=0 / deadzone=21,11 / fast_pskip=0 / chroma_qp_offset=-2 / threads=24 / lookahead_threads=4 / sliced_threads=0 / nr=0 / decimate=0 / interlaced=0 / bluray_compat=0 / constrained_intra=0 / bframes=8 / b_pyramid=2 / b_adapt=2 / b_bias=0 / direct=3 / weightb=1 / open_gop=0 / weightp=2 / keyint=240 / keyint_min=2 / scenecut=40 / intra_refresh=0 / rc=2pass / mbtree=0 / bitrate=13000 / ratetol=1.0 / qcomp=0.70 / qpmin=0 / qpmax=69 / qpstep=4 / cplxblur=20.0 / qblur=0.5 / ip_ratio=1.30 / pb_ratio=1.20 / aq=3:0.80
Language                    : English
Default                     : Yes
Forced                      : No

Audio #1
ID                          : 2
Format                      : AC-3
Format/Info                 : Audio Coding 3
Codec ID                    : A_AC3
Duration                    : 1 h 46 min
Bit rate mode               : Constant
Bit rate                    : 192 kb/s
Channel(s)                  : 2 channels
Channel positions           : Front: L R
Sampling rate               : 48.0 kHz
Frame rate                  : 31.250 FPS (1536 SPF)
Bit depth                   : 16 bits
Compression mode            : Lossy
Stream size                 : 147 MiB (1%)
Title                       : [UA-DUB-AAA-Sound]
Language                    : Ukrainian
Service kind                : Complete Main
Default                     : Yes
Forced                      : Yes

Audio #2
ID                          : 3
Format                      : AC-3
Format/Info                 : Audio Coding 3
Codec ID                    : A_AC3
Duration                    : 1 h 47 min
Bit rate mode               : Constant
Bit rate                    : 448 kb/s
Channel(s)                  : 6 channels
Channel positions           : Front: L C R, Side: L R, LFE
Sampling rate               : 48.0 kHz
Frame rate                  : 31.250 FPS (1536 SPF)
Bit depth                   : 16 bits
Compression mode            : Lossy
Stream size                 : 343 MiB (3%)
Language                    : English
Service kind                : Complete Main
Default                     : No
Forced                      : No

Text
ID                          : 4
Format                      : UTF-8
Codec ID                    : S_TEXT/UTF8
Codec ID/Info               : UTF-8 Plain Text
Duration                    : 1 h 32 min
Bit rate                    : 48 b/s
Count of elements           : 972
Stream size                 : 32.8 KiB (0%)
Language                    : English
Default                     : No
Forced                      : No

Menu
00:00:00.000                : en:1
00:02:33.570                : en:2
00:06:18.669                : en:3
00:12:01.261                : en:4
00:19:01.431                : en:5
00:24:12.575                : en:6
00:28:11.604                : en:7
00:32:44.418                : en:8
00:38:11.410                : en:9
00:44:33.542                : en:10
00:49:32.464                : en:11
00:53:07.011                : en:12
00:58:23.701                : en:13
01:04:05.541                : en:14
01:08:08.617                : en:15
01:16:14.977                : en:16
01:21:12.607                : en:17
01:28:58.989                : en:18
01:37:32.835                : en:19
01:39:10.890                : en:20
Скріншоти




Підтримати купівлю інших фільмів можна тут.

Подяка пану AngryBirdsUA за доріжку та пану Electroz за синхронізацію.

Джерело:
Особиста оцінка: 0 - не дивився


 Трекер:    Зареєстрований   

Завантажити / скачати фільм українською



відео для новачків



 Зареєстрований:   2018-06-25 22:39
 Розмір:   10.16 GB 
 Оцінка фільму:   8.5/10 (Голосів: 16)
   
Інші релізи
DeMKOV_712 
Новенький


З нами з: 24.09.14
Востаннє: 16.10.18
Повідомлень: 4

2018-09-22 03:26  
Кіно чудове!
Ваш часовий пояс: GMT + 2 Години

Нова тема   Відповісти