Район Беверлі-Хілз/ Беверлі-Хілс/ Беверлі-Хіллс 90210 (2 сезон) / Beverly Hills 90210 (season 2) (1990-1991) -AVC Ukr/Eng

Нові коментарі

Нова тема   Відповісти
Автор Повідомлення
Anonymous 







2018-06-25 20:00  
Район Беверлі-Хілз/ Беверлі-Хілс/ Беверлі-Хіллс 90210 (2 сезон) / Beverly Hills 90210 (season 2) (1990-1991) -AVC Ukr/Eng




Жанр: драма, романтичний
Країна: США


Кінокомпанія / телеканал: 90210 Productions, Fair Dinkum Productions, Propaganda Films
Режисер: Тім Гантер
Актори/ролі озвучують: Джейсон Прістлі, Шенен Догерті, Дженні Гарт, Ян Зірінг, Габріель Картеріс, Люк Перрі, Браян Остін Грін, Дуглас Емерсон, Торі Спелінг, Керол Поттер, Джеймс Екхаус

Сюжет:
«Беверлі-Хілс 90210» - серіал, який розповідає про життя молодих людей. Хлопці та дівчата, які проживають в багатому районі Беверлі Хілс. Хлопці проживають у фільмі ціле життя. Вони вчаться в школі, потім в коледжі, потім йдуть працювати. Серіал зачіпає величезну кількість соціальних проблем, які насущні і до цього дня. Це алкоголізм, залежність від наркотиків, згвалтування, права геїв, самогубство в ранньому віці і вагітність неповнолітніх. Фільм не обходиться і без романтики. Любов, побачення, поцілунки, палкі зустрічі, розставання, сварки і ненависть.


Тривалість: 1 серія: 42:00 (цілком серій: 28)
Перелік серій
1. Beach Blanket Brandon
2. The Party Fish
3. Summer Storm
4. Anaconda
5. Play It Again, David
6. Pass, Not Pass
7. Camping Trip
8. Wildfire
9. Ashes to Ashes
10. Necessity Is a Mother
11. Leading from the Heart
12. Down and Out of District in Beverly Hills
13. Halloween
14. The Next Fifty Years
15. U4EA
16. My Desperate Valentine
17. Chuckie's Back
18. A Walsh Family Christmas
19. Fire and Ice
20. A Competitive Edge
21. Everybody's Talking 'Bout It
22. Baby Makes Five
23. Cardio-Funk
24. The Pit and the Pendulum
25. Meeting Mr. Pony
26. Things to Do on a Rainy Day
27. Mexican Standoff
28. Wedding Bell Blues
Якість:
Відео:
кодек:
розмір кадру: 704 х 528
бітрейт: 1100 - 2200 кб/с

Аудіо1:
мова: українська
переклад: багатоголосий закадровий
кодек: 2.0
бітрейт: 192 кб/с

Джерело озвучення:


Аудіо2:
мова: англійська
переклад: оригінал
кодек: 2.0
бітрейт: 192 кб/с
Скріншоти




МІ
Complete name : H:\Serials\Beverly Hills 90210 (season 2)\02 - 2191023 - The Party Fish.
Format :
Format version : Version 4 / Version 2
File size : 661 MiB
Duration : 46 min 22 s
Overall bit rate : 1 994 kb/s
Encoded date : UTC 2018-06-25 14:43:06
Writing application : v22.0.0 ('At The End Of The World') 64-bit
Writing library : libebml v1.3.5 + v1.4.8

Video
ID : 1
Format : AVC
Format/Info : Advanced Video Codec
Format profile : [email protected]
Format settings, CABAC : Yes
Format settings, RefFrames : 10 frames
Codec ID : V_MPEG4/ISO/AVC
Duration : 46 min 22 s
Bit rate : 1 608 kb/s
Width : 704 pixels
Height : 528 pixels
Display aspect ratio : 4:3
Frame rate mode : Variable
Frame rate : 24.043 FPS
Original frame rate : 30.303 FPS
Color space : YUV
Chroma subsampling : 4:2:0
Bit depth : 8 bits
Scan type : Progressive
Bits/(Pixel*Frame) : 0.180
Stream size : 533 MiB (81%)
Writing library : core 146 r2555 0c21480
Encoding settings : cabac=1 / ref=10 / deblock=1:0:0 / analyse=0x3:0x133 / me=umh / subme=9 / psy=1 / psy_rd=1.00:0.00 / mixed_ref=1 / me_range=16 / chroma_me=1 / trellis=1 / 8x8dct=1 / cqm=0 / deadzone=21,11 / fast_pskip=1 / chroma_qp_offset=-2 / threads=3 / lookahead_threads=1 / sliced_threads=0 / nr=0 / decimate=1 / interlaced=0 / bluray_compat=0 / constrained_intra=0 / bframes=4 / b_pyramid=2 / b_adapt=1 / b_bias=0 / direct=3 / weightb=1 / open_gop=0 / weightp=2 / keyint=250 / keyint_min=25 / scenecut=40 / intra_refresh=0 / rc_lookahead=40 / rc=crf / mbtree=1 / crf=21.0 / qcomp=0.60 / qpmin=10 / qpmax=51 / qpstep=4 / ip_ratio=1.40 / aq=1:1.00
Language : English
Default : Yes
Forced : No

Audio #1
ID : 2
Format : AC-3
Format/Info : Audio Coding 3
Format settings, Endianness : Big
Codec ID : A_AC3
Duration : 46 min 22 s
Bit rate mode : Constant
Bit rate : 192 kb/s
Channel(s) : 2 channels
Channel positions : Front: L R
Sampling rate : 48.0 kHz
Frame rate : 31.250 FPS (1536 SPF)
Bit depth : 16 bits
Compression mode : Lossy
Delay relative to video : 2 ms
Stream size : 63.7 MiB (10%)
Title : 1+1
Language : Ukrainian
Service kind : Complete Main
Default : Yes
Forced : No

Audio #2
ID : 3
Format : AC-3
Format/Info : Audio Coding 3
Format settings, Endianness : Big
Codec ID : A_AC3
Duration : 46 min 22 s
Bit rate mode : Constant
Bit rate : 192 kb/s
Channel(s) : 2 channels
Channel positions : Front: L R
Sampling rate : 48.0 kHz
Frame rate : 31.250 FPS (1536 SPF)
Bit depth : 16 bits
Compression mode : Lossy
Delay relative to video : 2 ms
Stream size : 63.7 MiB (10%)
Language : English
Service kind : Complete Main
Default : No
Forced : No
Альтернативне озвучення з телеканалу К1
1. Сезон - https://toloka.to/t85649
2. Сезон - https://toloka.to/t86312
3. Сезон - https://toloka.to/t87831
4. Сезон - https://toloka.to/t87870
Подяки: ka81, olgaya, mintay, EvGaS
Джерело:
Особиста оцінка: 8 - мені сподобалося


Срібний реліз (на рейтинг впливає 50% завантаженого)
 Трекер:    Зареєстрований   

Завантажити / скачати серіал українською



відео для новачків



 Зареєстрований:   2018-06-25 20:00
 Розмір:   17.5 GB 
 Оцінка серіалу:   8/10 (Голосів: 9)
   
maestrо1997 
Новенький


З нами з: 06.12.13
Востаннє: 08.11.18
Повідомлень: 8

2018-09-21 16:50  
УРАААААААА!!!! беверлі хіллз з озвучкою 1+1!! перегляну ще раз, востаннє в 3му класі смакував))
maestrо1997 
Новенький


З нами з: 06.12.13
Востаннє: 08.11.18
Повідомлень: 8

2018-09-29 02:04  
Буде дуже круто, якщо ще зробите так. Фішка цієї роздачі в наявності англійської дороги, в інеті є субтитри і можна вивчати мову , насолоджуючись. Саме це я і роблю, завдяки цим двом роздачам. Дякую!!!
Ваш часовий пояс: GMT + 2 Години

Нова тема   Відповісти