Елена з Авалору / Elena of Avalor (Сезон 1) (2016) 1080p Ukr/Eng | sub Eng

Нові коментарі

Нова тема   Відповісти
Автор Повідомлення
sergiyko.5 
Забанено
Забанено


З нами з: 25.02.16
Востаннє: 29.10.20
Повідомлень: 3648

2018-06-25 20:45  
Елена з Авалору / Elena of Avalor (Сезон 1) (2016) 1080p Ukr/Eng | sub Eng


Елена з Авалору / Elena of Avalor (Сезон 1) (2016) 1080p Ukr/Eng | sub Eng

Жанр: пригоди, музичний, фентезі
Країна: США
Кінокомпанія: Walt Disney Television Animation
Режисер: Еліот М. Бур, Роб Претт, Нейтан Чю.

Сюжет:
Дуже давно зла чаклунка Шуріке вбила батьків принцеси Елени та захопила владу в її королівстві Авалорі. Придворний маг Алаказар допоміг дівчині та її родичам врятуватися. Але вони на довгі роки стали в'язнями амулету і нічого не могли із цим вдіяти. Для того, щоб зняти чари, Алаказар вирушив у небезпечну подорож, яка затягнулася аж на 41 рік. Та нарешті настав той щасливий день, коли Елену звільнили із амулета. І це стало початком нових пригод.




Тривалість: 1 серія: 22:25 (цілком серій: 26 з 26)
Якість:

Відео: кодек: розмір кадру: 1920 х 1080 бітрейт: 6600 кб/с
Аудіо 1: мова: українська переклад: професійний дубльований кодек: 2.0 бітрейт: 192 кб/с
Джерело озвучення:
Аудіо 2: мова: англійська переклад: оригінал кодек: 5.1 бітрейт: 640 кб/с (1-2 епізод, інші 2.0ch 224kbps)

Субтитри: мова: англійська тип: програмні (м'які) формат: *.srt
Перелік серій
01 - First Day of Rule
02 - Model Sister
03 - All Heated Up
04 - Island of Youth
05 - Spellbound
06 - Prince Too Charming
07 Що знайшли, те й загубили - Finders Leapers
08 - Royal Retreat
09 - A Day to Remember
10 - The Scepter of Light
11 Navidad
12 Crystal in the Rough
13 The Princess Knight
14 Olaball
15 Flight of the Jaquins
16 King of the Carnaval
17 Captain Turner Returns
18 Spirit Monkey Business
19 My Fair Naomi
20-21 Realm of the Jaquins
22 Wizard in Training
23 The Geckos Tale
24 Masks of Magic
25 Party of a Lifetime
26 Blockheads
Info
General
Unique ID : 19061544373530558226385110659214998329 (0xE571EB263FFB9AE7D6A6E0F0AC1FB39)
Complete name : E:\MULTFILMS\Elena of Avalor S01 1080p \S01E01.First Day of Rule.1080p..
Format :
Format version : Version 4 / Version 2
File size : 1.27 GiB
Duration : 24 min 27 s
Overall bit rate mode : Variable
Overall bit rate : 7 425 kb/s
Movie name : Elena of Avalor S01 1080p by sergiyko
Encoded date : UTC 2018-06-25 20:10:13
Writing application : v24.0.0 ('Beyond The Pale') 64-bit
Writing library : libebml v1.3.6 + v1.4.9

Video
ID : 1
Format : AVC
Format/Info : Advanced Video Codec
Format profile : [email protected]
Format settings : CABAC / 4 Ref Frames
Format settings, CABAC : Yes
Format settings, ReFrames : 4 frames
Codec ID : V_MPEG4/ISO/AVC
Duration : 24 min 27 s
Bit rate mode : Variable
Bit rate : 6 591 kb/s
Maximum bit rate : 15.0 Mb/s
Width : 1 920 pixels
Height : 1 080 pixels
Display aspect ratio : 16:9
Frame rate mode : Constant
Frame rate : 23.976 (24000/1001) FPS
Color space : YUV
Chroma subsampling : 4:2:0
Bit depth : 8 bits
Scan type : Progressive
Bits/(Pixel*Frame) : 0.133
Stream size : 1.13 GiB (89%)
Title : S01E01 First Day of Rule
Language : English
Default : Yes
Forced : No
Color range : Limited
Color primaries : BT.709
Transfer characteristics : BT.709
Matrix coefficients : BT.709

Audio #1
ID : 2
Format : AC-3
Format/Info : Audio Coding 3
Codec ID : A_AC3
Duration : 24 min 27 s
Bit rate mode : Constant
Bit rate : 192 kb/s
Channel(s) : 2 channels
Channel positions : Front: L R
Sampling rate : 48.0 kHz
Frame rate : 31.250 FPS (1536 SPF)
Bit depth : 16 bits
Compression mode : Lossy
Stream size : 33.6 MiB (3%)
Title : DUB | ПлюсПлюс
Language : Ukrainian
Service kind : Complete Main
Default : Yes
Forced : Yes

Audio #2
ID : 3
Format : E-AC-3
Format/Info : Enhanced Audio Coding 3
Codec ID : A_EAC3
Duration : 24 min 27 s
Bit rate mode : Constant
Bit rate : 640 kb/s
Channel(s) : 6 channels
Channel positions : Front: L C R, Side: L R, LFE
Sampling rate : 48.0 kHz
Frame rate : 187.500 FPS (256 SPF)
Compression mode : Lossy
Stream size : 112 MiB (9%)
Title : Original E-
Language : English
Service kind : Complete Main
Default : No
Forced : No

Text
ID : 4
Format : UTF-8
Codec ID : S_TEXT/UTF8
Codec ID/Info : UTF-8 Plain Text
Duration : 23 min 34 s
Bit rate : 97 b/s
Count of elements : 530
Stream size : 16.8 KiB (0%)
Title : Eng Sub
Language : English
Default : No
Forced : No
Скріншоти:


Автор запису/зведення: sergiyko


Бронзовий реліз (на рейтинг впливає 75% завантаженого)
 Трекер:    Зареєстрований   

Завантажити / скачати мультфільм українською



відео для новачків



 Зареєстрований:   2018-07-10 19:04
 Розмір:   24.58 GB 
 Оцінка мультсеріалу:   6.3/10 (Голосів: 10)
   
bot 
робот


З нами з: 30.09.07
Востаннє: 26.05.05
Повідомлень: 27938

2018-06-25 20:45  
Тему перенесено з Мультсеріали в HD до форуму Анонси релізів


sergiyko.5

bot 
робот


З нами з: 30.09.07
Востаннє: 26.05.05
Повідомлень: 27938

2018-06-25 23:15  
Тему перенесено з Анонси релізів до форуму Мультсеріали в HD


sergiyko.5

sergiyko.5 
Забанено
Забанено


З нами з: 25.02.16
Востаннє: 29.10.20
Повідомлень: 3648

2018-07-10 19:06  
Додав всі серії до повного сезону. Приємного перегляду!

Краще оформлення та ріп зроблю взавтра, зараз біжу працювати.

Djek31 
Новенький


З нами з: 22.12.16
Востаннє: 19.04.21
Повідомлень: 19

2019-01-14 20:29  
Добрый вечер коли буде Елена з Авалору 2 сезон?
sergiyko.5 
Забанено
Забанено


З нами з: 25.02.16
Востаннє: 29.10.20
Повідомлень: 3648

2019-01-14 21:06  
Djek31
Зроблю коли запишу звук, а це відбудеться якщо канал озвучить і покаже по ТБ.
Якщо хтось має інформацію про початок трансляції нових сезонів всіх мультсеріалів, пишіть, буду працювати.

Ваш часовий пояс: GMT + 2 Години

Нова тема   Відповісти