Жандарм на відпочинку / Le Gendarme En Balade (1970) AVC 2xUkr/Fra | Sub Fra/Eng

Нові коментарі

Нова тема   Відповісти
Автор Повідомлення
staf777 
Попереджень: 1
Попереджень: 1 


З нами з: 16.11.16
Востаннє: 18.12.18
Повідомлень: 1937

2018-06-25 18:38  
Жандарм на відпочинку / Le Gendarme En Balade (1970) AVC 2xUkr/Fra | Sub Fra/Eng

Жандарм на відпочинку / Le Gendarme En Balade (1970) AVC 2xUkr/Fra | Sub Fra/Eng


Жанр: комедія
Країна: Франція



Кінокомпанія: Société Nouvelle de Cinématographie (SNC), Mega Film
Режисер: Жан Жиро / Jean Girault
Актори: Луї де Фюнес / Louis de Funès, Жан Лефевр / Jean Lefebvre, Крістіан Марен / Christian Marin, Мішель Модо / Michel Modo та інші

Сюжет:
Усьому настає кінець. Начальство вважає наших героїв занадто старими для виконання службових обов'язків і відправляє їх на заслужений відпочинок. Це трагічний момент у житті такого мужнього офіцера як сержант Крюшо (де Фюнес). Замкнувшись у розкішному замку своєї дружини, він віддається зневірі, роблячи вигляд, що ловить рибу. Якось у гості до нього приїжджає колишній начальник Жербер. Вони збирають загін своїх колишніх підлеглих, надягають улюблену жандармську форму і відправляються назустріч новим пригодам...


Тривалість: 01:40:21
Якість: AVC
Відео:
кодек:
розмір кадру: 1024x432
бітрейт: 3500 кб/с

Аудіо # 1:
мова: українська
переклад: двоголосий закадровий
кодек: 2.0
бітрейт: 192 кб/с

Аудіо # 2: &
мова: українська
переклад: багатоголосий закадровий
кодек: 2.0
бітрейт: 192 кб/с

Аудіо # 3:
мова: французька
переклад: оригінал
кодек: 2.0
бітрейт: 192 кб/с

Субтитри :
мова: французька , англійська
тип: програмні (м'які)
формат: *.srt
Info
General
Unique ID : 197806947954869722272322212995070627769 (0x94D03B805CEA0072B68499E597B30FB9)
Complete name : H:\Le Gendarme En Balade (1970)AVC [2xUkr][Fra][Hurtom].
Format :
Format version : Version 4 / Version 2
File size : 2.86 GiB
Duration : 1 h 40 min
Overall bit rate : 4 079 kb/s
Movie name : Le Gendarme En Balade (1970)AVC [2xUkr][Fra][Hurtom]
Encoded date : UTC 2018-06-25 16:23:13
Writing application : v9.8.0 ('Kuglblids') 64bit
Writing library : libebml v1.3.4 + v1.4.5
Cover : Yes
Attachments : cover.jpg

Video
ID : 1
Format : AVC
Format/Info : Advanced Video Codec
Format profile : [email protected]
Format settings : CABAC / 10 Ref Frames
Format settings, CABAC : Yes
Format settings, ReFrames : 10 frames
Codec ID : V_MPEG4/ISO/AVC
Duration : 1 h 40 min
Bit rate : 3 500 kb/s
Width : 1 024 pixels
Height : 432 pixels
Display aspect ratio : 2.40:1
Frame rate mode : Constant
Frame rate : 24.000 FPS
Color space : YUV
Chroma subsampling : 4:2:0
Bit depth : 8 bits
Scan type : Progressive
Bits/(Pixel*Frame) : 0.330
Stream size : 2.45 GiB (86%)
Title : Le Gendarme en balade (1970)
Writing library : core 128 r2216 198a7ea
Encoding settings : cabac=1 / ref=10 / deblock=1:-2:-2 / analyse=0x3:0x113 / me=umh / subme=11 / psy=1 / psy_rd=1.00:0.10 / mixed_ref=1 / me_range=48 / chroma_me=1 / trellis=2 / 8x8dct=1 / cqm=0 / deadzone=21,11 / fast_pskip=0 / chroma_qp_offset=-3 / threads=16 / lookahead_threads=2 / sliced_threads=0 / nr=0 / decimate=0 / interlaced=0 / bluray_compat=0 / constrained_intra=0 / bframes=10 / b_pyramid=2 / b_adapt=2 / b_bias=0 / direct=3 / weightb=1 / open_gop=0 / weightp=2 / keyint=240 / keyint_min=24 / scenecut=40 / intra_refresh=0 / rc_lookahead=40 / rc=2pass / mbtree=0 / bitrate=3500 / ratetol=1.0 / qcomp=0.60 / qpmin=0 / qpmax=69 / qpstep=3 / cplxblur=20.0 / qblur=0.5 / vbv_maxrate=50000 / vbv_bufsize=62500 / nal_hrd=none / ip_ratio=1.40 / pb_ratio=1.30 / aq=1:0.80
Language : French
Default : Yes
Forced : No
Color range : Limited
Matrix coefficients : BT.709

Audio #1
ID : 2
Format : AC-3
Format/Info : Audio Coding 3
Codec ID : A_AC3
Duration : 1 h 40 min
Bit rate mode : Constant
Bit rate : 192 kb/s
Channel(s) : 2 channels
Channel positions : Front: L R
Sampling rate : 48.0 kHz
Frame rate : 31.250 FPS (1536 SPF)
Bit depth : 16 bits
Compression mode : Lossy
Stream size : 138 MiB (5%)
Title : [UA-DVO-1+1]
Language : Ukrainian
Service kind : Complete Main
Default : Yes
Forced : Yes

Audio #2
ID : 3
Format : AC-3
Format/Info : Audio Coding 3
Codec ID : A_AC3
Duration : 1 h 40 min
Bit rate mode : Constant
Bit rate : 192 kb/s
Channel(s) : 2 channels
Channel positions : Front: L R
Sampling rate : 48.0 kHz
Frame rate : 31.250 FPS (1536 SPF)
Bit depth : 16 bits
Compression mode : Lossy
Stream size : 138 MiB (5%)
Title : NTN
Language : Ukrainian
Service kind : Complete Main
Default : No
Forced : No

Audio #3
ID : 4
Format : AC-3
Format/Info : Audio Coding 3
Codec ID : A_AC3
Duration : 1 h 40 min
Bit rate mode : Constant
Bit rate : 192 kb/s
Channel(s) : 2 channels
Channel positions : Front: L R
Sampling rate : 48.0 kHz
Frame rate : 31.250 FPS (1536 SPF)
Bit depth : 16 bits
Compression mode : Lossy
Stream size : 138 MiB (5%)
Title : Original
Language : French
Service kind : Complete Main
Default : No
Forced : No

Text #1
ID : 5
Format : UTF-8
Codec ID : S_TEXT/UTF8
Codec ID/Info : UTF-8 Plain Text
Duration : 1 h 37 min
Bit rate : 42 b/s
Count of elements : 1068
Stream size : 30.7 KiB (0%)
Language : French
Default : No
Forced : No

Text #2
ID : 6
Format : UTF-8
Codec ID : S_TEXT/UTF8
Codec ID/Info : UTF-8 Plain Text
Duration : 1 h 37 min
Bit rate : 28 b/s
Count of elements : 716
Stream size : 20.2 KiB (0%)
Language : English
Default : No
Forced : No

Menu
00:00:00.000 : en:Chapter 01
00:08:16.041 : en:Chapter 02
00:18:33.083 : en:Chapter 03
00:25:04.625 : en:Chapter 04
00:34:39.791 : en:Chapter 05
00:44:11.250 : en:Chapter 06
00:47:57.083 : en:Chapter 07
00:58:07.791 : en:Chapter 08
01:07:58.625 : en:Chapter 09
01:16:43.250 : en:Chapter 10
01:26:33.333 : en:Chapter 11
01:36:35.791 : en:Chapter 12
Скріншоти



Звукозапис з ТБ: drakon87, Neytreenor
Виготовлення постеру: hellforces
Зведення звуку: taraskill1, ua2004

Джерело: &
Особиста оцінка: 10 - без зайвих вагань рекомендую всім!


Срібний реліз (на рейтинг впливає 50% завантаженого)
 Трекер:    Зареєстрований   

Завантажити / скачати фільм українською



відео для новачків



 Зареєстрований:   2018-06-25 18:38
 Розмір:   2.86 GB 
 Оцінка фільму:   8/10 (Голосів: 9)
   
StAn16 
Свій


З нами з: 29.01.11
Востаннє: 16.12.18
Повідомлень: 117

2018-12-15 16:01  
Зараз іде по Інтеру з багатоголосою озвучкою. Певно, новою
ProgBassing 
Відео Гуртом - фільмокрай
Відео Гуртом - фільмокрай


З нами з: 08.03.08
Востаннє: 18.12.18
Повідомлень: 807

2018-12-15 21:11  
StAn16 написано:
...іде по ... новою


...мало хто здатен перевершити "роботу голосом" Олександра Завальського (озвучка від плюсів)

https://www.youtube.com/watch?v=76OLK4BuU_o

Ваш часовий пояс: GMT + 2 Години

Нова тема   Відповісти