Формула 1. Сезон 2018. Етап 8. Гран-Прі Франції. Кваліфікація (23.06.2018) 720p Ukr/Eng/Int

Нові коментарі

Нова тема   Відповісти
Останній раз роздавалося SergUKR (2019-03-14)
Автор Повідомлення
sergiyko.5 
VIP


З нами з: 25.02.16
Востаннє: 28.10.20
Повідомлень: 3639

2018-06-25 08:20  
Формула 1. Сезон 2018. Етап 8. Гран-Прі Франції. Кваліфікація (23.06.2018) 720p Ukr/Eng/Int


Формула 1. Сезон 2018. Етап 8. Гран-Прі Франції. Кваліфікація (23.06.2018) 720p Ukr/Eng/Int

Жанр: Перегони Формули 1
Країна: Франція
Телеканал: Перший автомобільний
Коментатор: Максим Подзігун

Опис:
Кваліфікація восьмого етапу Гран-Прі Франції 2018 року.


Тривалість: 01:20:51
Якість:

Відео: кодек: розмір кадру: 1280 х 720 бітрейт: 5100 кб/с
Аудіо # 1: мова: українська (Перший автомобільний) кодек: 2.0 бітрейт: 192 кб/с
Аудіо # 2: мова: англійська (Sky Sport F1 HD) кодек: 5.1 бітрейт: 384 кб/с
Аудіо # 3: інтершум кодек: 5.1 бітрейт: 448 кб/с
Про файл:

General
Unique ID : 6261955426691958496657141559143529041 (0x4B6023D38BECF5D1C7C8881FF657A51)
Complete name : D:\Torrents\SPORT\Formula 1\F1.2018.Qualifying\F1.2018.08.France.Qualifying.720p..Ukr.Eng.
Format :
Format version : Version 4 / Version 2
File size : 3.51 GiB
Duration : 1 h 20 min
Overall bit rate : 6 208 kb/s
Encoded date : UTC 2018-06-25 06:12:03
Writing application : v24.0.0 ('Beyond The Pale') 64-bit
Writing library : libebml v1.3.6 + v1.4.9

Video
ID : 1
Format : AVC
Format/Info : Advanced Video Codec
Format profile : [email protected]
Format settings : CABAC / 4 Ref Frames
Format settings, CABAC : Yes
Format settings, ReFrames : 4 frames
Codec ID : V_MPEG4/ISO/AVC
Duration : 1 h 20 min
Bit rate : 5 180 kb/s
Width : 1 280 pixels
Height : 720 pixels
Display aspect ratio : 16:9
Frame rate mode : Constant
Frame rate : 50.000 FPS
Color space : YUV
Chroma subsampling : 4:2:0
Bit depth : 8 bits
Scan type : Progressive
Bits/(Pixel*Frame) : 0.112
Stream size : 2.93 GiB (83%)
Language : English
Default : Yes
Forced : No

Audio #1
ID : 2
Format : AC-3
Format/Info : Audio Coding 3
Codec ID : A_AC3
Duration : 1 h 20 min
Bit rate mode : Constant
Bit rate : 192 kb/s
Channel(s) : 2 channels
Channel positions : Front: L R
Sampling rate : 48.0 kHz
Frame rate : 31.250 FPS (1536 SPF)
Bit depth : 16 bits
Compression mode : Lossy
Delay relative to video : 4 ms
Stream size : 111 MiB (3%)
Title : 1 Авто | Максим Подзігун
Language : Ukrainian
Service kind : Complete Main
Default : Yes
Forced : Yes

Audio #2
ID : 3
Format : AC-3
Format/Info : Audio Coding 3
Codec ID : A_AC3
Duration : 1 h 20 min
Bit rate mode : Constant
Bit rate : 384 kb/s
Channel(s) : 6 channels
Channel positions : Front: L C R, Side: L R, LFE
Sampling rate : 48.0 kHz
Frame rate : 31.250 FPS (1536 SPF)
Bit depth : 16 bits
Compression mode : Lossy
Delay relative to video : 4 ms
Stream size : 222 MiB (6%)
Title : SkySports F1
Language : English
Service kind : Complete Main
Default : No
Forced : No

Audio #3
ID : 4
Format : AC-3
Format/Info : Audio Coding 3
Codec ID : A_AC3
Duration : 1 h 20 min
Bit rate mode : Constant
Bit rate : 448 kb/s
Channel(s) : 6 channels
Channel positions : Front: L C R, Side: L R, LFE
Sampling rate : 48.0 kHz
Frame rate : 31.250 FPS (1536 SPF)
Bit depth : 16 bits
Compression mode : Lossy
Delay relative to video : 4 ms
Stream size : 259 MiB (7%)
Title : Natural Sounds
Service kind : Complete Main
Default : No
Forced : No
Скріншоти:


Автор ріпу: Shewa1


 Трекер:    Зареєстрований   

Завантажити / скачати торрент



відео для новачків



 Зареєстрований:   2018-06-25 08:20
 Розмір:   3.51 GB 
 Оцінка:   8.5/10 (Голосів: 6)
   
11FrYkT 
Модератор відео


З нами з: 20.02.11
Востаннє: 28.10.20
Повідомлень: 7011

2018-06-25 08:31  
sergiyko.5 написано:

Audio #2
ID : 3
Format : AC-3
Format/Info : Audio Coding 3
Codec ID : A_AC3
Duration : 1 h 20 min
Bit rate mode : Constant
Bit rate : 384 kb/s
Channel(s) : 6 channels
Channel positions : Front: L C R, Side: L R, LFE
Sampling rate : 48.0 kHz
Frame rate : 31.250 FPS (1536 SPF)
Bit depth : 16 bits
Compression mode : Lossy
Delay relative to video : 4 ms
Stream size : 222 MiB (6%)
Title : SkySports F1
Language : English
Service kind : Complete Main
Default : No
Forced : No

Audio #3
ID : 4
Format : AC-3
Format/Info : Audio Coding 3
Codec ID : A_AC3
Duration : 1 h 20 min
Bit rate mode : Constant
Bit rate : 448 kb/s
Channel(s) : 6 channels
Channel positions : Front: L C R, Side: L R, LFE
Sampling rate : 48.0 kHz
Frame rate : 31.250 FPS (1536 SPF)
Bit depth : 16 bits
Compression mode : Lossy
Delay relative to video : 4 ms
Stream size : 259 MiB (7%)
Title : Natural Sounds
Service kind : Complete Main
Default : No
Forced : No


опишіть

Геша75 
Новенький


З нами з: 28.04.18
Востаннє: 06.06.19
Повідомлень: 3

2018-06-28 07:15  
Не грузится, поставь пожалуйста!
sergiyko.5 
VIP


З нами з: 25.02.16
Востаннє: 28.10.20
Повідомлень: 3639

2018-06-30 19:47  
Поки що немає нормального відео, щоб зробити реліз кваліфікації Австрії.

Ось на швидкоруч, відео було з рекламою, після обрізки файл став коротший за пряму трансляцію хвилин на 15:
https://fex.net/349920199613

Ваш часовий пояс: GMT + 2 Години

Нова тема   Відповісти