Формула 1. Сезон 2018. Етап 8. Гран-Прі Франції. Гонка (24.06.2018) 1080p

Нові коментарі

Нова тема   Відповісти
Автор Повідомлення
sergiyko.5 
VIP


З нами з: 25.02.16
Востаннє: 25.10.20
Повідомлень: 3616

2018-06-25 08:00  
Формула 1. Сезон 2018. Етап 8. Гран-Прі Франції. Гонка (24.06.2018) 1080p

Формула 1. Сезон 2018. Етап 8. Гран-Прі Франції. Гонка (24.06.2018) 1080p

Жанр: Перегони Формули 1
Країна: Франція
Телеканал: Перший автомобільний
Коментатор: Максим Подзігун

Опис:
Гонка восьмого етапу Гран-Прі Франції 2018 року.


Тривалість: 02:03:40
Якість:

Відео: кодек: розмір кадру: 1920 х 1080 бітрейт: 7900 кб/с
Аудіо: мова: українська кодек: 2.0 бітрейт: 192 кб/с
Про файл:

General
Unique ID : 307328301094544942853634417194378743664 (0xE735471CD2DB02EF8B96CA8A374C4F70)
Complete name : D:\Torrents\SPORT\Formula 1\F1.2018.Race\F1.2018.08.France.Race.1080p.IPTV.Ukr.
Format :
Format version : Version 4 / Version 2
File size : 7.01 GiB
Duration : 2 h 3 min
Overall bit rate : 8 120 kb/s
Encoded date : UTC 2018-06-25 05:53:27
Writing application : v24.0.0 ('Beyond The Pale') 64-bit
Writing library : libebml v1.3.6 + v1.4.9

Video
ID : 1
Format : AVC
Format/Info : Advanced Video Codec
Format profile : [email protected]
Format settings : CABAC / 4 Ref Frames
Format settings, CABAC : Yes
Format settings, ReFrames : 4 frames
Format settings, GOP : M=4, N=28
Codec ID : V_MPEG4/ISO/AVC
Duration : 2 h 3 min
Bit rate : 7 926 kb/s
Width : 1 920 pixels
Height : 1 080 pixels
Display aspect ratio : 16:9
Frame rate mode : Constant
Frame rate : 25.000 FPS
Color space : YUV
Chroma subsampling : 4:2:0
Bit depth : 8 bits
Scan type : Progressive
Bits/(Pixel*Frame) : 0.153
Stream size : 6.85 GiB (98%)
Title : Formula1 2018 R08 France Race
Language : English
Default : Yes
Forced : No

Audio
ID : 2
Format :
Format/Info : Advanced Audio Codec
Format profile : LC
Codec ID : A_AAC-2
Duration : 2 h 3 min
Bit rate : 192 kb/s
Channel(s) : 2 channels
Channel positions : Front: L R
Sampling rate : 48.0 kHz
Frame rate : 46.875 FPS (1024 SPF)
Compression mode : Lossy
Stream size : 170 MiB (2%)
Title : 1 Авто | Максим Подзігун
Language : Ukrainian
Default : Yes
Forced : No
Скріншоти:


Автор запису: Callistus


 Трекер:    Зареєстрований   

Завантажити / скачати торрент



відео для новачків



 Зареєстрований:   2018-06-25 08:00
 Розмір:   7.01 GB 
 Оцінка:   9.9/10 (Голосів: 19)
   
sergiyko.5 
VIP


З нами з: 25.02.16
Востаннє: 25.10.20
Повідомлень: 3616

2018-06-25 08:03  
Прошу вибачення у шанувальників Ф1 на толоці, кваліфікація була відсутня бо був випускний у дитини, а гонка запізнилась тому що працював у нічну зміну.
VicCob 
Свій


З нами з: 16.06.10
Востаннє: 25.10.20
Повідомлень: 58

2018-06-25 08:14  
Щось не йде роздача
вже пішла роздача - ДЯКУЮ!

-=PELYA=- 
Новенький


З нами з: 09.04.18
Востаннє: 24.10.20
Повідомлень: 1

2018-06-25 09:36  
На жаль не зможу стягнути такий об'єм. Дюже інет слабкий на морі.
L`viv 
Забанено
Забанено


З нами з: 03.06.18
Востаннє: 12.07.18
Повідомлень: 26

2018-06-25 14:00  
sergiyko.5
Дякую за Вашу працю, друже!

СветНесущий 
Новенький


З нами з: 26.03.17
Востаннє: 25.10.20
Повідомлень: 1

2018-06-26 07:46  
Дякую!
Ваш часовий пояс: GMT + 2 Години

Нова тема   Відповісти