Жандарм із Сен-Тропе / Le gendarme de Saint-Tropez (1964) AVC 2xUkr/Fra | Sub Fra/Eng

Нові коментарі

Нова тема   Відповісти
Автор Повідомлення
staf777 
Попереджень: 1
Попереджень: 1 


З нами з: 16.11.16
Востаннє: 17.11.18
Повідомлень: 1755

2018-06-24 22:22  
Жандарм із Сен-Тропе / Le gendarme de Saint-Tropez (1964) AVC 2xUkr/Fra | Sub Fra/Eng

Жандарм із Сен-Тропе / Le gendarme de Saint-Tropez (1964) AVC 2xUkr/Fra | Sub Fra/Eng


Жанр: комедія
Країна: Франція


Кінокомпанія: Société Nouvelle de Cinématographie (SNC), Franca Films
Режисер: Жан Жиро / Jean Girault
Актори: Луї де Фюнес / Louis de Funès, Мішель Ґалабрю / Michel Galabru, Женев'єва Ґрад / Geneviève Grad, Клод П'єплю / Claude Piéplu, Марія Паком / Maria Pacôme, Жан Лефевр / Jean Lefebvre, Крістіан Марен / Christian Marin та інші

Сюжет:
До чарівного курортного міста Сен-Тропе на підвищення переводять мужнього сержанта Крюшо (де Фюнес) разом з красивою дочкою Ніколь. Добрі, але придуркуваті жандарми приймають нового колегу з радістю. Але радість тривала недовго... Ще більше придуркуватий, аніж його підлеглі, Крюшо у захваті стає на захист закону. Місто одразу охоплює хвиля штрафів, починається нещадне полювання на нудистів. І все було б чудово, якби дочка Крюшо Ніколь не збрехала своїм друзям про те, що її батько - мільярдер з Америки, який має власну яхту. Адже на тій яхті знаходилися злочинці, які викрали безцінну картину Рембрандта з музею...


Тривалість: 01:39:13
Якість: AVC
Відео:
кодек:
розмір кадру: 1024x436
бітрейт: 3500 кб/с

Аудіо # 1:
мова: українська
переклад: двоголосий закадровий
кодек: 2.0
бітрейт: 192 кб/с

Аудіо # 2: &
мова: українська
переклад: багатоголосий закадровий
кодек: 2.0
бітрейт: 192 кб/с

Аудіо # 3:
мова: французька
переклад: оригінал
кодек: 2.0
бітрейт: 192 кб/с

Субтитри :
мова: французька , англійська
тип: програмні (м'які)
формат: *.srt
Info
General
Unique ID : 203986231350700446829022330037056144785 (0x997651B1DAE003728815D928FC218591)
Complete name : H:\» Українське озвучення » Фільми\Комедія\Le gendarme de Saint-Tropez (1964) AVC [2xUkr][Fra][Hurtom].
Format :
Format version : Version 4 / Version 2
File size : 2.83 GiB
Duration : 1 h 39 min
Overall bit rate : 4 078 kb/s
Movie name : Le gendarme de Saint-Tropez (1964) AVC [2xUkr][Fra][Hurtom]
Encoded date : UTC 2018-06-24 20:02:52
Writing application : v9.8.0 ('Kuglblids') 64bit
Writing library : libebml v1.3.4 + v1.4.5
Cover : Yes
Attachments : cover.jpg

Video
ID : 1
Format : AVC
Format/Info : Advanced Video Codec
Format profile : [email protected]
Format settings : CABAC / 10 Ref Frames
Format settings, CABAC : Yes
Format settings, ReFrames : 10 frames
Codec ID : V_MPEG4/ISO/AVC
Duration : 1 h 39 min
Bit rate : 3 500 kb/s
Width : 1 024 pixels
Height : 436 pixels
Display aspect ratio : 2.35:1
Frame rate mode : Constant
Frame rate : 24.000 FPS
Color space : YUV
Chroma subsampling : 4:2:0
Bit depth : 8 bits
Scan type : Progressive
Bits/(Pixel*Frame) : 0.327
Stream size : 2.43 GiB (86%)
Title : Le Gendarme de St. Tropez (1964)
Writing library : core 128 r2216 198a7ea
Encoding settings : cabac=1 / ref=10 / deblock=1:-2:-2 / analyse=0x3:0x113 / me=umh / subme=11 / psy=1 / psy_rd=1.00:0.10 / mixed_ref=1 / me_range=48 / chroma_me=1 / trellis=2 / 8x8dct=1 / cqm=0 / deadzone=21,11 / fast_pskip=0 / chroma_qp_offset=-3 / threads=16 / lookahead_threads=2 / sliced_threads=0 / nr=0 / decimate=0 / interlaced=0 / bluray_compat=0 / constrained_intra=0 / bframes=12 / b_pyramid=2 / b_adapt=2 / b_bias=0 / direct=3 / weightb=1 / open_gop=0 / weightp=2 / keyint=240 / keyint_min=24 / scenecut=40 / intra_refresh=0 / rc_lookahead=40 / rc=2pass / mbtree=0 / bitrate=3500 / ratetol=1.0 / qcomp=0.60 / qpmin=0 / qpmax=69 / qpstep=3 / cplxblur=20.0 / qblur=0.5 / vbv_maxrate=50000 / vbv_bufsize=62500 / nal_hrd=none / ip_ratio=1.40 / pb_ratio=1.30 / aq=1:0.80
Language : French
Default : Yes
Forced : No
Color range : Limited
Matrix coefficients : BT.709

Audio #1
ID : 2
Format : AC-3
Format/Info : Audio Coding 3
Codec ID : A_AC3
Duration : 1 h 39 min
Bit rate mode : Constant
Bit rate : 192 kb/s
Channel(s) : 2 channels
Channel positions : Front: L R
Sampling rate : 48.0 kHz
Frame rate : 31.250 FPS (1536 SPF)
Bit depth : 16 bits
Compression mode : Lossy
Stream size : 136 MiB (5%)
Title : [UA-DVO-1+1]
Language : Ukrainian
Service kind : Complete Main
Default : Yes
Forced : Yes

Audio #2
ID : 3
Format : AC-3
Format/Info : Audio Coding 3
Codec ID : A_AC3
Duration : 1 h 39 min
Bit rate mode : Constant
Bit rate : 192 kb/s
Channel(s) : 2 channels
Channel positions : Front: L R
Sampling rate : 48.0 kHz
Frame rate : 31.250 FPS (1536 SPF)
Bit depth : 16 bits
Compression mode : Lossy
Stream size : 136 MiB (5%)
Title : NTN
Language : Ukrainian
Service kind : Complete Main
Default : No
Forced : No

Audio #3
ID : 4
Format : AC-3
Format/Info : Audio Coding 3
Codec ID : A_AC3
Duration : 1 h 39 min
Bit rate mode : Constant
Bit rate : 192 kb/s
Channel(s) : 2 channels
Channel positions : Front: L R
Sampling rate : 48.0 kHz
Frame rate : 31.250 FPS (1536 SPF)
Bit depth : 16 bits
Compression mode : Lossy
Stream size : 136 MiB (5%)
Title : Original
Language : French
Service kind : Complete Main
Default : No
Forced : No

Text #1
ID : 5
Format : UTF-8
Codec ID : S_TEXT/UTF8
Codec ID/Info : UTF-8 Plain Text
Duration : 1 h 36 min
Bit rate : 50 b/s
Count of elements : 1048
Stream size : 35.9 KiB (0%)
Language : French
Default : No
Forced : No

Text #2
ID : 6
Format : UTF-8
Codec ID : S_TEXT/UTF8
Codec ID/Info : UTF-8 Plain Text
Duration : 1 h 36 min
Bit rate : 41 b/s
Count of elements : 747
Stream size : 29.4 KiB (0%)
Language : English
Default : No
Forced : No

Menu
00:00:00.000 : en:Chapter 01
00:09:05.458 : en:Chapter 02
00:16:55.916 : en:Chapter 03
00:25:09.750 : en:Chapter 04
00:33:30.541 : en:Chapter 05
00:42:18.875 : en:Chapter 06
00:50:18.041 : en:Chapter 07
00:59:56.666 : en:Chapter 08
01:07:00.166 : en:Chapter 09
01:15:11.125 : en:Chapter 10
01:26:04.333 : en:Chapter 11
01:32:35.791 : en:Chapter 12
Скріншоти




Звукозапис з ТБ: drakon87, Neytreenor
Виготовлення постеру: realnitro
Зведення звуку: taraskill1, ua2004

Джерело: &
Особиста оцінка: 10 - без зайвих вагань рекомендую всім!


Срібний реліз (на рейтинг впливає 50% завантаженого)
 Трекер:    Зареєстрований   

Завантажити / скачати фільм українською



відео для новачків



 Зареєстрований:   2018-06-24 22:22
 Розмір:   2.83 GB 
 Оцінка фільму:   10/10 (Голосів: 8)
   
Dark Invader 
Модератор відео


З нами з: 06.01.11
Востаннє: 17.11.18
Повідомлень: 2462

2018-06-25 00:01  
staf777 написано:
Тривалість:

Допишіть тривалість фільму.

Ваш часовий пояс: GMT + 2 Години

Нова тема   Відповісти