З любов'ю, Саймон / Love, Simon (2018) mini 1080p H.265 Ukr/Eng | Sub Ukr/Eng

Нові коментарі

Нова тема   Відповісти
Автор Повідомлення
ukr_anonymous 
Забанено
Забанено


З нами з: 17.04.18
Востаннє: 17.11.19
Повідомлень: 233

2018-06-24 22:40  
З любов'ю, Саймон / Love, Simon (2018) mini 1080p H.265 Ukr/Eng | Sub Ukr/Eng

З любов'ю, Саймон / Love, Simon (2018) mini 1080p H.265 Ukr/Eng | Sub Ukr/Eng


Жанр: ЛГБТ-драма, комедія, мелодрама
Країна: США



Кінокомпанія: Fox 2000 Pictures, New Leaf Literary & Media, Temple Hill Entertainment
Режисер: Грег Берланті
Актори: Нік Робінсон, Джош Дюамель, Дженніфер Гарнер, Кетрін Лангфорд, Александра Шипп, Майлс Хейзер, Таліта Бейтман, Кейнан Лонсдейл, Логан Міллер, Тоні Хейл

Сюжет:
Старшокласник Саймон приховує від друзів свою гомосексуальність, але його листування з анонімним коханим потрапляє в чужі руки. Шкільний «клоун» Мартін загрожує викрити Саймона, якщо той не допоможе йому зав'язати роман з місцевою красунею.


Тривалість: 01:49:42
Якість:
Відео:
кодек: H.265 (HEVC)
розмір кадру: 1920 х 804
бітрейт: 4404 кб/с
бітова глибина: 10 біт
Увага! Перед завантаженням переконайтесь, що ваш пристрій відтворення (та/або ПЗ) підтримує H.265 (HEVC)

Аудіо # 1:
мова: українська
переклад: професійний дубльований
кодек: 2.0
бітрейт: 192 кб/с

Аудіо # 2:
мова: англійська
переклад: оригінал
кодек: 5.1
бітрейт: 448 кб/с

Субтитри # 1:
мова: українська
тип: програмні (м'які)
формат: *.srt

Субтитри # 2:
мова: англійська (Full, SDH)
тип: програмні (м'які)
формат: *.srt
Info
General
Unique ID : 156776198692345701134539598461150286956 (0x75F1FF6047E5B183D84B3AEBD9ADD46C)
Complete name : E:\video\Love, Simon (2018) 1080p H.265 [UKR_ENG].
Format :
Format version : Version 4 / Version 2
File size : 3.87 GiB
Duration : 1 h 49 min
Overall bit rate : 5 054 kb/s
Movie name : Love, Simon
Encoded date : UTC 2018-06-24 19:32:56
Writing application : v22.0.0 ('At The End Of The World') 64-bit
Writing library : libebml v1.3.5 + v1.4.8
Cover : Yes
Attachments : cover

Video
ID : 1
Format : HEVC
Format/Info : High Efficiency Video Coding
Format profile : Main [email protected]@Main
Codec ID : V_MPEGH/ISO/HEVC
Duration : 1 h 49 min
Bit rate : 4 404 kb/s
Width : 1 920 pixels
Height : 804 pixels
Display aspect ratio : 2.40:1
Frame rate mode : Constant
Frame rate : 23.976 (24000/1001) FPS
Color space : YUV
Chroma subsampling : 4:2:0
Bit depth : 10 bits
Bits/(Pixel*Frame) : 0.119
Stream size : 3.38 GiB (87%)
Writing library : x265 2.8+1-478bfe2b7673:[Windows][GCC 7.3.0][64 bit] 10bit
Encoding settings : cpuid=1111039 / frame-threads=3 / numa-pools=8 / wpp / no-pmode / no-pme / no-psnr / no-ssim / log-level=2 / input-csp=1 / input-res=1920x804 / interlace=0 / total-frames=157824 / level-idc=0 / high-tier=1 / uhd-bd=0 / ref=4 / no-allow-non-conformance / no-repeat-headers / annexb / no-aud / no-hrd / info / hash=0 / no-temporal-layers / open-gop / min-keyint=23 / keyint=250 / gop-lookahead=0 / bframes=4 / b-adapt=2 / b-pyramid / bframe-bias=0 / rc-lookahead=25 / lookahead-slices=4 / scenecut=40 / radl=0 / no-intra-refresh / ctu=64 / min-cu-size=8 / rect / no-amp / max-tu-size=32 / tu-inter-depth=1 / tu-intra-depth=1 / limit-tu=0 / rdoq-level=2 / dynamic-rd=0.00 / no-ssim-rd / signhide / no-tskip / nr-intra=0 / nr-inter=0 / no-constrained-intra / strong-intra-smoothing / max-merge=3 / limit-refs=3 / limit-modes / me=3 / subme=3 / merange=57 / temporal-mvp / weightp / no-weightb / no-analyze-src-pics / deblock=0:0 / sao / no-sao-non-deblock / rd=4 / no-early-skip / rskip / no-fast-intra / no-tskip-fast / no-cu-lossless / no-b-intra / no-splitrd-skip / rdpenalty=0 / psy-rd=2.00 / psy-rdoq=1.00 / no-rd-refine / no-lossless / cbqpoffs=0 / crqpoffs=0 / rc=abr / bitrate=4404 / qcomp=0.60 / qpstep=4 / stats-write=0 / stats-read=2 / cplxblur=20.0 / qblur=0.5 / ipratio=1.40 / pbratio=1.30 / aq-mode=3 / aq-strength=1.00 / cutree / zone-count=0 / no-strict-cbr / qg-size=32 / no-rc-grain / qpmax=69 / qpmin=0 / no-const-vbv / sar=0 / overscan=0 / videoformat=5 / range=0 / colorprim=2 / transfer=2 / colormatrix=2 / chromaloc=0 / display-window=0 / max-cll=0,0 / min-luma=0 / max-luma=1023 / log2-max-poc-lsb=8 / vui-timing-info / vui-hrd-info / slices=1 / no-opt-qp-pps / no-opt-ref-list-length-pps / multi-pass-opt-rps / scenecut-bias=0.05 / no-opt-cu-delta-qp / aq-motion / no-hdr / no-hdr-opt / no-dhdr10-opt / no-idr-recovery-sei / analysis-reuse-level=5 / scale-factor=0 / refine-intra=0 / refine-inter=0 / refine-mv=0 / no-limit-sao / ctu-info=0 / no-lowpass-dct / refine-mv-type=0 / copy-pic=1 / max-ausize-factor=1.0 / no-dynamic-refine / no-single-sei
Default : Yes
Forced : No

Audio #1
ID : 2
Format : AC-3
Format/Info : Audio Coding 3
Codec ID : A_AC3
Duration : 1 h 49 min
Bit rate mode : Constant
Bit rate : 192 kb/s
Channel(s) : 2 channels
Channel positions : Front: L R
Sampling rate : 48.0 kHz
Frame rate : 31.250 FPS (1536 SPF)
Bit depth : 16 bits
Compression mode : Lossy
Stream size : 151 MiB (4%)
Title : 2.0 @ 192 kbps
Language : Ukrainian
Service kind : Complete Main
Default : Yes
Forced : Yes

Audio #2
ID : 3
Format : AC-3
Format/Info : Audio Coding 3
Codec ID : A_AC3
Duration : 1 h 49 min
Bit rate mode : Constant
Bit rate : 448 kb/s
Channel(s) : 6 channels
Channel positions : Front: L C R, Side: L R, LFE
Sampling rate : 48.0 kHz
Frame rate : 31.250 FPS (1536 SPF)
Bit depth : 16 bits
Compression mode : Lossy
Stream size : 352 MiB (9%)
Title : 5.1 @ 448 kbps
Language : English
Service kind : Complete Main
Default : No
Forced : No

Text #1
ID : 4
Format : UTF-8
Codec ID : S_TEXT/UTF8
Codec ID/Info : UTF-8 Plain Text
Duration : 1 h 48 min
Bit rate : 106 b/s
Count of elements : 1827
Stream size : 85.2 KiB (0%)
Title : Full
Language : Ukrainian
Default : No
Forced : No

Text #2
ID : 5
Format : UTF-8
Codec ID : S_TEXT/UTF8
Codec ID/Info : UTF-8 Plain Text
Duration : 1 h 45 min
Bit rate : 80 b/s
Count of elements : 2020
Stream size : 61.6 KiB (0%)
Title : Full
Language : English
Default : No
Forced : No

Text #3
ID : 6
Format : UTF-8
Codec ID : S_TEXT/UTF8
Codec ID/Info : UTF-8 Plain Text
Duration : 1 h 47 min
Bit rate : 91 b/s
Count of elements : 2267
Stream size : 71.7 KiB (0%)
Title : SDH
Language : English
Default : No
Forced : No

Menu
00:00:00.000 : en:Chapter 01
00:04:13.795 : en:Chapter 02
00:08:38.893 : en:Chapter 03
00:13:51.121 : en:Chapter 04
00:18:04.041 : en:Chapter 05
00:25:37.994 : en:Chapter 06
00:29:25.138 : en:Chapter 07
00:33:52.321 : en:Chapter 08
00:42:03.229 : en:Chapter 09
00:47:46.613 : en:Chapter 10
00:54:15.043 : en:Chapter 11
00:59:24.435 : en:Chapter 12
01:02:49.390 : en:Chapter 13
01:05:40.770 : en:Chapter 14
01:09:55.399 : en:Chapter 15
01:17:11.501 : en:Chapter 16
01:20:03.298 : en:Chapter 17
01:22:22.687 : en:Chapter 18
01:24:27.562 : en:Chapter 19
01:27:52.850 : en:Chapter 20
01:32:35.633 : en:Chapter 21
01:38:17.433 : en:Chapter 22
01:41:13.192 : en:Chapter 23
01:45:44.963 : en:Chapter 24
Скріншоти



Підтримати купівлю інших фільмів можна тут.

Подяка пану AngryBirdsUA за доріжку

Джерело:
Особиста оцінка: 0 - не дивився


 Трекер:    Зареєстрований   

Завантажити / скачати фільм українською



відео для новачків



 Зареєстрований:   2018-06-24 22:40
 Розмір:   3.87 GB 
 Оцінка фільму:   4.8/10 (Голосів: 25)
   
Ваш часовий пояс: GMT + 2 Години

Нова тема   Відповісти