З любов'ю, Саймон / Love, Simon (2018) Remux 1080p Ukr/Eng | Sub Ukr/Eng

Нові коментарі

Нова тема   Відповісти
Автор Повідомлення
staf777 
Відео Гуртом - підтримка та поширення
Відео Гуртом - підтримка та поширення


З нами з: 16.11.16
Востаннє: 24.04.19
Повідомлень: 2284

2018-06-24 15:24  
З любов'ю, Саймон / Love, Simon (2018) Remux 1080p Ukr/Eng | Sub Ukr/Eng

З любов'ю, Саймон / Love, Simon (2018) Remux 1080p Ukr/Eng | Sub Ukr/Eng


Жанр: ЛГБТ-драма, комедія, мелодрама
Країна: США



Кінокомпанія: Fox 2000 Pictures, New Leaf Literary & Media, Temple Hill Entertainment
Режисер: Грег Берланті
Актори: Нік Робінсон, Джош Дюамель, Дженніфер Гарнер, Кетрін Лангфорд, Александра Шипп, Майлс Хейзер, Таліта Бейтман, Кейнан Лонсдейл, Логан Міллер, Тоні Хейл

Сюжет:
Старшокласник Саймон приховує від друзів свою гомосексуальність, але його листування з анонімним коханим потрапляє в чужі руки. Шкільний «клоун» Мартін загрожує викрити Саймона, якщо той не допоможе йому зав'язати роман з місцевою красунею.


Тривалість: 01:49:42
Якість: Remux 1080p
Відео:
кодек:
розмір кадру: 1920x1080
бітрейт: 31.2 Mб/с

Аудіо # 1:
мова: українська
переклад: професійний дубльований
кодек: 2.0
бітрейт: 192 кб/с

Аудіо # 2:
мова: англійська
переклад: оригінал
кодек: -HD 5.1
бітрейт: 3623 кб/с

Субтитри:
мова: українська
тип: програмні (м'які)
формат: *.srt

Субтитри:(Full, SDH)
мова: англійська
тип: програмні (м'які)
формат: *.srt
Info
General
Unique ID : 202087516677012406454922117047910623811 (0x9808A3D56F635173AE4F5A5FCB236A43)
Complete name : H:\» HD українською » Фільми в HD\Драма\Love, Simon (2018) Remux 1080p [UKR_ENG] [Hurtom].
Format :
Format version : Version 4 / Version 2
File size : 26.8 GiB
Duration : 1 h 49 min
Overall bit rate mode : Variable
Overall bit rate : 35.0 Mb/s
Movie name : Love, Simon (2018) Remux 1080p [UKR_ENG] [Hurtom]
Encoded date : UTC 2018-06-24 14:31:49
Writing application : v9.8.0 ('Kuglblids') 64bit
Writing library : libebml v1.3.4 + v1.4.5
Cover : Yes
Attachments : cover / cover

Video
ID : 1
Format : AVC
Format/Info : Advanced Video Codec
Format profile : [email protected]
Format settings : CABAC / 2 Ref Frames
Format settings, CABAC : Yes
Format settings, ReFrames : 2 frames
Codec ID : V_MPEG4/ISO/AVC
Duration : 1 h 49 min
Bit rate mode : Variable
Bit rate : 31.2 Mb/s
Width : 1 920 pixels
Height : 1 080 pixels
Display aspect ratio : 16:9
Frame rate mode : Constant
Frame rate : 23.976 (24000/1001) FPS
Color space : YUV
Chroma subsampling : 4:2:0
Bit depth : 8 bits
Scan type : Progressive
Bits/(Pixel*Frame) : 0.627
Stream size : 23.9 GiB (89%)
Language : English
Default : Yes
Forced : No

Audio #1
ID : 2
Format : AC-3
Format/Info : Audio Coding 3
Codec ID : A_AC3
Duration : 1 h 49 min
Bit rate mode : Constant
Bit rate : 192 kb/s
Channel(s) : 2 channels
Channel positions : Front: L R
Sampling rate : 48.0 kHz
Frame rate : 31.250 FPS (1536 SPF)
Bit depth : 16 bits
Compression mode : Lossy
Stream size : 151 MiB (1%)
Title : 2.0 @ 192 kbps
Language : Ukrainian
Service kind : Complete Main
Default : Yes
Forced : Yes

Audio #2
ID : 3
Format :
Format/Info : Digital Theater Systems
Format profile : MA / Core
Codec ID : A_DTS
Duration : 1 h 49 min
Bit rate mode : Variable / Constant
Bit rate : 3 623 kb/s / 1 509 kb/s
Channel(s) : 6 channels
Channel positions : Front: L C R, Side: L R, LFE
Sampling rate : 48.0 kHz
Frame rate : 93.750 FPS (512 SPF)
Bit depth : 24 bits
Compression mode : Lossless / Lossy
Stream size : 2.78 GiB (10%)
Title : Original
Language : English
Default : No
Forced : No

Text #1
ID : 4
Format : UTF-8
Codec ID : S_TEXT/UTF8
Codec ID/Info : UTF-8 Plain Text
Duration : 1 h 48 min
Bit rate : 106 b/s
Count of elements : 1827
Stream size : 85.2 KiB (0%)
Title : Full
Language : Ukrainian
Default : No
Forced : No

Text #2
ID : 5
Format : UTF-8
Codec ID : S_TEXT/UTF8
Codec ID/Info : UTF-8 Plain Text
Duration : 1 h 44 min
Bit rate : 80 b/s
Count of elements : 2019
Stream size : 61.5 KiB (0%)
Title : Full
Language : English
Default : No
Forced : No

Text #3
ID : 6
Format : UTF-8
Codec ID : S_TEXT/UTF8
Codec ID/Info : UTF-8 Plain Text
Duration : 1 h 47 min
Bit rate : 91 b/s
Count of elements : 2266
Stream size : 71.5 KiB (0%)
Title : SDH
Language : English
Default : No
Forced : No

Menu #1
00:00:00.000 : en:00:00:00.000
00:04:13.795 : en:00:04:13.795
00:08:39.060 : en:00:08:39.060
00:13:51.122 : en:00:13:51.122
00:18:04.041 : en:00:18:04.041
00:25:38.328 : en:00:25:38.328
00:29:25.138 : en:00:29:25.138
00:33:52.697 : en:00:33:52.697
00:42:03.438 : en:00:42:03.438
00:47:46.947 : en:00:47:46.947
00:54:15.043 : en:00:54:15.043
00:59:24.436 : en:00:59:24.436
01:02:49.391 : en:01:02:49.391
01:05:41.146 : en:01:05:41.146
01:09:55.400 : en:01:09:55.400
01:17:11.502 : en:01:17:11.502
01:20:03.674 : en:01:20:03.674
01:22:22.688 : en:01:22:22.688
01:24:27.562 : en:01:24:27.562
01:27:52.851 : en:01:27:52.851
01:32:35.633 : en:01:32:35.633
01:38:17.433 : en:01:38:17.433
01:41:13.192 : en:01:41:13.192
01:45:45.339 : en:01:45:45.339

Menu #2
00:00:00.000 : en:00:00:00.000
00:04:13.795 : en:00:04:13.795
00:08:39.060 : en:00:08:39.060
00:13:51.122 : en:00:13:51.122
00:18:04.041 : en:00:18:04.041
00:25:38.328 : en:00:25:38.328
00:29:25.138 : en:00:29:25.138
00:33:52.697 : en:00:33:52.697
00:42:03.438 : en:00:42:03.438
00:47:46.947 : en:00:47:46.947
00:54:15.043 : en:00:54:15.043
00:59:24.436 : en:00:59:24.436
01:02:49.391 : en:01:02:49.391
01:05:41.146 : en:01:05:41.146
01:09:55.400 : en:01:09:55.400
01:17:11.502 : en:01:17:11.502
01:20:03.674 : en:01:20:03.674
01:22:22.688 : en:01:22:22.688
01:24:27.562 : en:01:24:27.562
01:27:52.851 : en:01:27:52.851
01:32:35.633 : en:01:32:35.633
01:38:17.433 : en:01:38:17.433
01:41:13.192 : en:01:41:13.192
01:45:45.339 : en:01:45:45.339
Скріншоти



Підтримати купівлю інших фільмів можна тут.

Подяка пану AngryBirdsUA за доріжку
Джерело: &
Особиста оцінка: 0 - не дивився


Золотий реліз (завантажене не впливає на рейтинг)
 Трекер:    Зареєстрований   

Завантажити / скачати фільм українською



відео для новачків



 Зареєстрований:   2018-06-24 18:07
 Розмір:   26.82 GB 
 Оцінка фільму:   4.9/10 (Голосів: 29)
   
dezhaviu 
Новенький


З нами з: 24.12.16
Востаннє: 14.03.19
Повідомлень: 3

2018-06-26 22:05  
Тупо пропоганда ЛГБТ. Як взагалі можна допсукати такі фільми? Це прямий психолігчний вплив з метою руйнування інституту сімї((

Велике прохання, вилучіть цей реліз!

0637850513 
Новенький


З нами з: 19.03.17
Востаннє: 12.01.19
Повідомлень: 2

2018-06-26 22:08  
Дуже класний фільм! Однозначно рекомендую.
demitsuru 
Попереджень: 1
Попереджень: 1 


З нами з: 13.11.16
Востаннє: 25.04.19
Повідомлень: 189

2018-06-27 16:06  
Чудовий фільм. Ніякої лгбт пропаганди там немає.
Фільм можна подивитися з сім'єю.

Bandersnatch 
Новенький


З нами з: 30.05.14
Востаннє: 17.04.19
Повідомлень: 3

2018-06-29 19:52  
dezhaviu
Абсолютно згоден, якщо подібні фільми викликають в вас бажання займатись одностатевим сексом, то краще вам його не дивитись. Також, не дивіться канал Animal Planet, бо ще прокинеться бажання з левами кохатись. Ну, і фільм "Людина дощу" теж треба оминути, щоб аутизм не підхопити.

Lyolic 
VIP


З нами з: 04.08.09
Востаннє: 24.04.19
Повідомлень: 351

2018-07-03 23:47  
Скільки срача (на сусідніх гілках)... Геї, ЛГБТ... Ну звісно, у кого совок в голові замість мізків, той крім геїв нічого не помітить. А фільм то ж не про геїв, а про відносини між людьми, відносини в сім'ї. Вчіться ставитись до людей по їх вчинках, а не по пропаганді.
BRD-KNV-BRD 
Новенький


З нами з: 17.02.18
Востаннє: 18.04.19
Повідомлень: 1

2019-03-17 23:18  
Величезне Дякую!!!
V_Plum 
Новенький


З нами з: 16.09.10
Востаннє: 24.04.19
Повідомлень: 3

2019-03-18 18:05  
"ЛГБТ-драма" це вже цілий новий жанр? Чекаємо "ЛГБТ-фентезі", "ЛГБТ-трилер", "ЛГБТ-детектив"? Не занадто?
Ваш часовий пояс: GMT + 2 Години

Нова тема   Відповісти