Гострий біль / Acute pain (2017) 720p

Нові коментарі

Нова тема   Відповісти
Автор Повідомлення
Леля22 
Забанено
Забанено


З нами з: 22.07.15
Востаннє: 07.08.18
Повідомлень: 1036

2018-06-23 21:15  
Гострий біль / Acute pain (2017) 720p

Гострий біль / Acute pain (2017) 720p


Жанр: короткометражний, документальний, новітня історія України
Країна: Україна

Кіностудія: творча лабораторія «MyStreetFilms-Рубіж»
Режисер, оператор, сценарист: Валерій Пузік / Valeriy Puzik
У кадрі: Анатолій Стодола, а також зуби бійців Збройних сил України та добровольчих батальйонів

Синопсис: У Толіка була мрія: він хотів бути перевертачем пінгвінів. З Антарктидою не склалось. Його мрія збулась в зоні АТО. Але кіно не про це. Фільм про зуби. Фільм народився у творчій лабораторії «MyStreetFilms-Рубіж» Фестивалю кіно та урбаністики «86». Під час Фестивалю «86» відбулась прем'єра фільму. Другим фестивалем для «Гострого болю» стала «Відкрита ніч», де фільм став найкращим в номінації «Неігровий фільм», а також здобув спеціальний приз фестивалю «За пошук героя».

Знімання стрічки відбулося у березні 2017 року в зоні АТО, а саме в Карлівці та Авдіївці. Творчий наставник проекту – Остап Костюк. В центрі історії волонтер-стоматолог, який їде в зону бойових дій лікувати бійцям ЗСУ та добровольцям зуби. «Його герой – це приклад того, як можна проявляти свою громадянську позицію не в мілітарний спосіб, а просто роблячи те, що вмієш. Це дуже легка й життєствердна історія», - Остап Костюк. По своїй суті це фільм-метафора.
Про режисера
Валерій Пузік за освітою – художник-дизайнер. Має за плечима понад 10 виставок живопису та графіки. Працював журналістом для декількох ЗМІ. Автор низки новел та оповідань. Режисер документальних короткометражних стрічок та відеопоезій. У січні 2015 року пішов добровольцем на фронт. Брав участь у бойових діях на Донбасі в складі 5 батальйону Добровольчого українського корпусу Правого Сектору (ДУК ПС). Разом з побратимами зняв короткометражний документальний фільм «Перемир'я», потім міні-серіал «Бліндаж», де був сценаристом проекту.

Тривалість: 00:10:47
Якість: 720p
Відео:
кодек:
розмір кадру: 1280 х 720 (16:9)
бітрейт: 1 775 кб/с

Аудіо:
мова: українська
переклад: оригінал
кодек: 2.0
бітрейт: 192 кб/с
Скріншоти










Info
General
Format : MPEG-4
Format profile : Base Media / Version 2
Codec ID : mp42 (isom/mp42)
File size : 152 MiB
Duration : 10 min 47 s
Overall bit rate mode : Variable
Overall bit rate : 1 969 kb/s
Encoded date : UTC 2017-06-09 19:15:24
Tagged date : UTC 2017-06-09 19:15:24
gsst : 0
gstd : 647371

Video
ID : 1
Format : AVC
Format/Info : Advanced Video Codec
Format profile : [email protected]
Format settings : CABAC / 1 Ref Frames
Format settings, CABAC : Yes
Format settings, RefFrames : 1 frame
Format settings, GOP : M=1, N=60
Codec ID : avc1
Codec ID/Info : Advanced Video Coding
Duration : 10 min 47 s
Bit rate : 1 775 kb/s
Maximum bit rate : 8 446 kb/s
Width : 1 280 pixels
Height : 720 pixels
Display aspect ratio : 16:9
Frame rate mode : Constant
Frame rate : 23.976 (24000/1001) FPS
Color space : YUV
Chroma subsampling : 4:2:0
Bit depth : 8 bits
Scan type : Progressive
Bits/(Pixel*Frame) : 0.080
Stream size : 137 MiB (90%)
Tagged date : UTC 2017-06-09 19:15:30
Color range : Limited
Color primaries : BT.709
Transfer characteristics : BT.709
Matrix coefficients : BT.709

Audio
ID : 2
Format :
Format/Info : Advanced Audio Codec
Format profile : LC
Codec ID : mp4a-40-2
Duration : 10 min 47 s
Bit rate mode : Variable
Bit rate : 192 kb/s
Maximum bit rate : 201 kb/s
Channel(s) : 2 channels
Channel positions : Front: L R
Sampling rate : 44.1 kHz
Frame rate : 43.066 FPS (1024 SPF)
Compression mode : Lossy
Stream size : 14.8 MiB (10%)
Title : IsoMedia File Produced by Google, 5-11-2011
Encoded date : UTC 2017-06-09 19:15:28
Tagged date : UTC 2017-06-09 19:15:30
Джерело: https://www.youtube.com/channel/UCu1tSXpLSYS6FOcXiQsBoSg


Золотий реліз (завантажене не впливає на рейтинг)
 Трекер:    Зареєстрований   

Завантажити / скачати фільм українською



відео для новачків



 Зареєстрований:   2018-06-23 21:15
 Розмір:   152 MB 
 Оцінка фільму:   10/10 (Голосів: 4)
   
Атлет 
Частий відвідувач


З нами з: 26.07.18
Востаннє: 15.10.18
Повідомлень: 28

2018-08-09 23:26  
Хай нашим ворогам стане добре і вони про нас забудуть...
Ваш часовий пояс: GMT + 2 Години

Нова тема   Відповісти