Людина-оркестр / L'homme orchestre (1970) AVC 3xUkr/Fra | Sub Fra/Eng

Нові коментарі

Нова тема   Відповісти
Автор Повідомлення
staf777 
Попереджень: 1
Попереджень: 1 


З нами з: 16.11.16
Востаннє: 23.09.18
Повідомлень: 1518

2018-06-23 18:46  
Людина-оркестр / L'homme orchestre (1970) AVC 3xUkr/Fra | Sub Fra/Eng

Людина-оркестр / L'homme orchestre (1970) AVC 3xUkr/Fra | Sub Fra/Eng

Альтернативні постери




повнорозмірні зображення відкриються по кліку (з натиснутим CTRL чи кліком середньою кнопкою мишки - у новій вкладці)


Жанр: комедія, мюзикл
Країна: Франція



Кінокомпанія: Gaumont
Режисер: Серж Корбер / Serge Korber
Композитор: Франсуа де Рубе / François de Roubaix
Актори: Луї де Фюнес / Louis de Funès, Даніель Белю / Daniel Bellus, Макс Деро / Max Desrau, Ноель Адам / Noëlle Adam, Олівьє Де Фюнес / Olivier De Funès, Тиберіо Мюржія / Tiberio Murgia, Вітторіа де Сільверіо / Vittoria Di Silverio, Паоло Тодеско / Paola Tedesco, Франко Вольпі / Franco Volpi та інші

Сюжет:
Балетний імпресаріо Еван Еванс (Луї де Фюнес) разом зі своїм племінником Філіпом ретельно слідкує за тим, щоб танцівниці його трупи не контактували з чоловіками, бо це може завадити їх роботі. Але під час турне по Італії стає зрозуміло, що одна з танцівниць має немовля. Тирану Евансу доводиться взяти опікунство над малюком, якого він вважає сином Філіпа.
Через деякий час з’являється ще одна дитина, цього разу – справжній син. Новоспечений дідусь ледь не божеволіє, а велике турне згодом перетворюється на суцільну циркову виставу.


Тривалість: 01:25:30
Якість: AVC
Відео:
кодек:
розмір кадру: 1024x432
бітрейт: 3185 кбіт/с

Аудіо # 1:
мова: українська
переклад: двоголосий закадровий | Студія "ТВ+" на замовлення "Аврора Дистрибушн"
ролі озвучили: Дмитро Завадський і Тетяна Зіновенко
кодек: 2.0
бітрейт: 192 кбіт/с

Аудіо # 2:
мова: українська
переклад: двоголосий закадровий
ролі озвучили: Олександр Завальський і Ніна Касторф
кодек: 2.0
бітрейт: 192 кбіт/с

Аудіо # 3:
мова: українська
переклад: двоголосий закадровий
ролі озвучили: Ярослав Чорненький і Наталя Задніпровська
кодек: 2.0
бітрейт: 192 кбіт/с

Аудіо # 4:
мова: французька
переклад: оригінал
кодек: 2.0
бітрейт: 192 кбіт/с

Субтитри :
мова: французька (завантажити), англійська (завантажити)
тип: програмні (м'які)
формат: *.srt
Info
Код:
General
Unique ID                   : 225882828133291411603269600826780346028 (0xA9EF734466DA433DB40FAF4B45D0E6AC)
Complete name               : H:\L'homme orchestre (1970) AVC [3xUkr,Fra][Hurtom&HQClub].
Format                      :
Format version              : Version 4 / Version 2
File size                   : 2.36 GiB
Duration                    : 1 h 25 min
Overall bit rate            : 3 956 kb/s
Movie name                  : L'homme orchestre (1970) AVC [3xUkr,Fra][Hurtom&HQClub]
Encoded date                : UTC 2018-06-24 17:05:43
Writing application         : v9.8.0 ('Kuglblids') 64bit
Writing library             : libebml v1.3.4 + v1.4.5
Cover                       : Yes
Attachments                 : cover.jpg

Video
ID                          : 1
Format                      : AVC
Format/Info                 : Advanced Video Codec
Format profile              : [email protected]
Format settings             : CABAC / 10 Ref Frames
Format settings, CABAC      : Yes
Format settings, ReFrames   : 10 frames
Codec ID                    : V_MPEG4/ISO/AVC
Duration                    : 1 h 25 min
Bit rate                    : 3 185 kb/s
Width                       : 1 024 pixels
Height                      : 432 pixels
Display aspect ratio        : 2.40:1
Frame rate mode             : Constant
Frame rate                  : 24.000 FPS
Color space                 : YUV
Chroma subsampling          : 4:2:0
Bit depth                   : 8 bits
Scan type                   : Progressive
Bits/(Pixel*Frame)          : 0.300
Stream size                 : 1.90 GiB (81%)
Title                       : L'homme orchestre
Writing library             : core 146 r2538 121396c
Encoding settings           : cabac=1 / ref=10 / deblock=1:-1:-1 / analyse=0x3:0x113 / me=umh / subme=10 / psy=1 / psy_rd=1.00:0.10 / mixed_ref=1 / me_range=32 / chroma_me=1 / trellis=2 / 8x8dct=1 / cqm=0 / deadzone=21,11 / fast_pskip=0 / chroma_qp_offset=-3 / threads=6 / lookahead_threads=1 / sliced_threads=0 / nr=0 / decimate=0 / interlaced=0 / bluray_compat=0 / constrained_intra=0 / bframes=7 / b_pyramid=2 / b_adapt=2 / b_bias=0 / direct=3 / weightb=1 / open_gop=0 / weightp=2 / keyint=250 / keyint_min=25 / scenecut=40 / intra_refresh=0 / rc_lookahead=60 / rc=2pass / mbtree=1 / bitrate=3185 / ratetol=1.0 / qcomp=0.60 / qpmin=0 / qpmax=69 / qpstep=4 / cplxblur=20.0 / qblur=0.5 / vbv_maxrate=14000 / vbv_bufsize=14000 / nal_hrd=none / filler=0 / ip_ratio=1.40 / aq=1:1.00
Language                    : French
Default                     : Yes
Forced                      : No

Audio #1
ID                          : 2
Format                      : AC-3
Format/Info                 : Audio Coding 3
Codec ID                    : A_AC3
Duration                    : 1 h 25 min
Bit rate mode               : Constant
Bit rate                    : 192 kb/s
Channel(s)                  : 2 channels
Channel positions           : Front: L R
Sampling rate               : 48.0 kHz
Frame rate                  : 31.250 FPS (1536 SPF)
Bit depth                   : 16 bits
Compression mode            : Lossy
Stream size                 : 117 MiB (5%)
Title                       : [UA-DVO]
Language                    : Ukrainian
Service kind                : Complete Main
Default                     : Yes
Forced                      : Yes

Audio #2
ID                          : 3
Format                      : AC-3
Format/Info                 : Audio Coding 3
Codec ID                    : A_AC3
Duration                    : 1 h 25 min
Bit rate mode               : Constant
Bit rate                    : 192 kb/s
Channel(s)                  : 2 channels
Channel positions           : Front: L R
Sampling rate               : 48.0 kHz
Frame rate                  : 31.250 FPS (1536 SPF)
Bit depth                   : 16 bits
Compression mode            : Lossy
Stream size                 : 117 MiB (5%)
Title                       : [UA-DVO]
Language                    : Ukrainian
Service kind                : Complete Main
Default                     : No
Forced                      : No

Audio #3
ID                          : 4
Format                      : AC-3
Format/Info                 : Audio Coding 3
Codec ID                    : A_AC3
Duration                    : 1 h 25 min
Bit rate mode               : Constant
Bit rate                    : 192 kb/s
Channel(s)                  : 2 channels
Channel positions           : Front: L R
Sampling rate               : 48.0 kHz
Frame rate                  : 31.250 FPS (1536 SPF)
Bit depth                   : 16 bits
Compression mode            : Lossy
Stream size                 : 117 MiB (5%)
Title                       : [UA-DVO]
Language                    : Ukrainian
Service kind                : Complete Main
Default                     : No
Forced                      : No

Audio #4
ID                          : 5
Format                      : AC-3
Format/Info                 : Audio Coding 3
Codec ID                    : A_AC3
Duration                    : 1 h 25 min
Bit rate mode               : Constant
Bit rate                    : 192 kb/s
Channel(s)                  : 2 channels
Channel positions           : Front: L R
Sampling rate               : 48.0 kHz
Frame rate                  : 31.250 FPS (1536 SPF)
Bit depth                   : 16 bits
Compression mode            : Lossy
Stream size                 : 117 MiB (5%)
Language                    : French
Service kind                : Complete Main
Default                     : No
Forced                      : No

Text #1
ID                          : 6
Format                      : UTF-8
Codec ID                    : S_TEXT/UTF8
Codec ID/Info               : UTF-8 Plain Text
Duration                    : 1 h 25 min
Bit rate                    : 37 b/s
Count of elements           : 1144
Stream size                 : 23.4 KiB (0%)
Title                       : FULL
Language                    : French
Default                     : No
Forced                      : No

Text #2
ID                          : 7
Format                      : UTF-8
Codec ID                    : S_TEXT/UTF8
Codec ID/Info               : UTF-8 Plain Text
Duration                    : 1 h 22 min
Bit rate                    : 26 b/s
Count of elements           : 396
Stream size                 : 16.2 KiB (0%)
Title                       : FULL
Language                    : English
Default                     : No
Forced                      : No


Джерела та подяки: &
українські доріжки - ТВ+: igor911 - зведення, Sando7 - запис з ТБ; 1+1: rooster - зведення, Technomate - запис з ТБ; СТБ: rooster; українізований постер (під спойлером) - rooster; фільмографії акторів та інформація про озвучення - Віктор (всі - Гуртом).

ЗАЛИШАЙТЕСЬ ЯКОМОГА ДОВШЕ НА РОЗДАЧІ!

СКАЧАВ САМ - ДАЙ СКАЧАТИ ІНШИМ


Срібний реліз (на рейтинг впливає 50% завантаженого)
 Трекер:    Зареєстрований   

Завантажити / скачати фільм українською



відео для новачків



 Зареєстрований:   2018-06-24 20:28
 Розмір:   2.36 GB 
 Оцінка фільму:   7.8/10 (Голосів: 4)
   
Інші релізи
bot 
робот


З нами з: 30.09.07
Востаннє: 26.05.05
Повідомлень: 19817

2018-06-24 20:28  
Тему перенесено з Анонси релізів до форуму Фільми


staf777

Ваш часовий пояс: GMT + 2 Години

Нова тема   Відповісти