Народжена вільною / Born Free (1966) AVC Ukr/Eng | Sub Eng

Нові коментарі

Нова тема   Відповісти
Автор Повідомлення
staf777 
Попереджень: 1
Попереджень: 1 


З нами з: 16.11.16
Востаннє: 17.11.18
Повідомлень: 1753

2018-06-23 16:35  
Народжена вільною / Born Free (1966) AVC Ukr/Eng | Sub Eng

Народжена вільною / Born Free (1966) AVC Ukr/Eng | Sub Eng


Жанр: сімейний, драма, пригодницький
Країна: Велика Британія, США



Кінокомпанія: Columbia Pictures
Режисер: Джеймс Гілл
Актори: Вірджінія МакКена, Білл Траверс, Джефрі Кін, Пітер Лукой

Сюжет:
Фільм був знятий в Африканській савані за однойменним бестселером відомої письменниці і натураліста Джой Адамсон.

Стрічка розповідає про долю левиці, що дитинчам потрапила до подружжя Адамсон. Вони не тільки рятують її від неминучої загибелі, а й, виростивши її, повертають назад в дику природу тому, що вона була народжена вільною.

Авторам вдалося чудово відобразити і передати за допомогою засобів кіно красу природи і тваринного світу Кенії.


Тривалість: 01:35:06
Якість: AVC
Відео:
кодек:
розмір кадру: 1168x496
бітрейт: 3052 кб/с

Аудіо # 1:
мова: українська
переклад: двоголосий закадровий
кодек: 2.0
бітрейт: 192 кб/с

Аудіо # 2:
мова: англійська
переклад: оригінал
кодек: 1.0
бітрейт: 256 кб/с

Джерело озвучення:


Субтитри # 1-3: (Full, SDH)
мова: англійська
тип: програмні (м'які)
формат: *.srt
Скріншоти




MI
General
Unique ID : 249698783094357135648032435575158464551 (0xBBDA3C8107C7ED3897F2D32067E7E027)
Complete name : H:\ Born Free (1966) AVC [Ukr][Eng][Sub Eng][Hurtom].
Format :
Format version : Version 4 / Version 2
File size : 2.33 GiB
Duration : 1 h 35 min
Overall bit rate : 3 502 kb/s
Movie name : Born Free (1966) AVC [Ukr][Eng][Sub Eng][Hurtom]
Encoded date : UTC 2018-06-23 14:24:54
Writing application : v9.8.0 ('Kuglblids') 64bit
Writing library : libebml v1.3.4 + v1.4.5
Cover : Yes
Attachments : cover_land.jpg

Video
ID : 1
Format : AVC
Format/Info : Advanced Video Codec
Format profile : [email protected]
Format settings : CABAC / 1 Ref Frames
Format settings, CABAC : Yes
Format settings, ReFrames : 1 frame
Codec ID : V_MPEG4/ISO/AVC
Duration : 1 h 35 min
Bit rate : 3 052 kb/s
Width : 1 168 pixels
Height : 496 pixels
Display aspect ratio : 2.35:1
Frame rate mode : Constant
Frame rate : 23.976 (23976/1000) FPS
Color space : YUV
Chroma subsampling : 4:2:0
Bit depth : 8 bits
Scan type : Progressive
Bits/(Pixel*Frame) : 0.220
Stream size : 2.03 GiB (87%)
Title : Рождённая свободной.1966 (Release for Topmost)
Language : English
Default : Yes
Forced : No

Audio #1
ID : 2
Format : AC-3
Format/Info : Audio Coding 3
Codec ID : A_AC3
Duration : 1 h 35 min
Bit rate mode : Constant
Bit rate : 192 kb/s
Channel(s) : 2 channels
Channel positions : Front: L R
Sampling rate : 48.0 kHz
Frame rate : 31.250 FPS (1536 SPF)
Bit depth : 16 bits
Compression mode : Lossy
Stream size : 131 MiB (5%)
Title : , 2 ch, 192 kbps - DVO (1+1)
Language : Ukrainian
Service kind : Complete Main
Default : Yes
Forced : Yes

Audio #2
ID : 3
Format : AC-3
Format/Info : Audio Coding 3
Codec ID : A_AC3
Duration : 1 h 35 min
Bit rate mode : Constant
Bit rate : 256 kb/s
Channel(s) : 1 channel
Channel positions : Front: C
Sampling rate : 48.0 kHz
Frame rate : 31.250 FPS (1536 SPF)
Bit depth : 16 bits
Compression mode : Lossy
Stream size : 174 MiB (7%)
Title : , 1 ch, 256 kbps
Language : English
Service kind : Complete Main
Default : No
Forced : No

Text #1
ID : 4
Format : UTF-8
Codec ID : S_TEXT/UTF8
Codec ID/Info : UTF-8 Plain Text
Duration : 1 h 29 min
Bit rate : 41 b/s
Count of elements : 661
Stream size : 26.8 KiB (0%)
Title : full
Language : English
Default : No
Forced : No

Text #2
ID : 5
Format : UTF-8
Codec ID : S_TEXT/UTF8
Codec ID/Info : UTF-8 Plain Text
Duration : 1 h 32 min
Bit rate : 48 b/s
Count of elements : 821
Stream size : 32.6 KiB (0%)
Title : SDH
Language : English
Default : No
Forced : No

Menu
00:00:00.000 : en:00:00:00
00:04:09.624 : en:00:04:09
00:07:43.045 : en:00:07:43
00:12:31.709 : en:00:12:31
00:15:48.446 : en:00:15:48
00:19:44.683 : en:00:19:44
00:24:56.869 : en:00:24:56
00:28:11.648 : en:00:28:11
00:30:53.101 : en:00:30:53
00:34:59.472 : en:00:34:59
00:38:23.426 : en:00:38:23
00:45:08.080 : en:00:45:08
00:47:31.431 : en:00:47:31
00:51:11.902 : en:00:51:11
00:54:44.406 : en:00:54:44
00:59:10.964 : en:00:59:10
01:04:56.142 : en:01:04:56
01:07:04.478 : en:01:07:04
01:11:38.502 : en:01:11:38
01:15:25.020 : en:01:15:25
01:20:00.670 : en:01:20:00
01:22:21.853 : en:01:22:21
01:27:58.898 : en:01:27:58
01:31:04.457 : en:01:31:04
Джерело: &
Особиста оцінка: 0 - не дивився


Срібний реліз (на рейтинг впливає 50% завантаженого)
 Трекер:    Зареєстрований   

Завантажити / скачати фільм українською



відео для новачків



 Зареєстрований:   2018-06-23 16:36
 Розмір:   2.33 GB 
 Оцінка фільму:   9.9/10 (Голосів: 7)
   
Інші релізи
   Народжена вільною / Born Free (1966) Ukr/Eng | Sub Eng staf777  1 / 0   1.45 GB   2018-04-07 15:02 
   Народжена вільною / Born Free (1966) NemoInFire  1 / 0   1.37 GB   2012-07-02 21:51 
bot 
робот


З нами з: 30.09.07
Востаннє: 26.05.05
Повідомлень: 20153

2018-06-23 16:36  
Тему перенесено з Анонси релізів до форуму Фільми


staf777

Shukachvitru 
Новенький


З нами з: 06.04.17
Востаннє: 17.11.18
Повідомлень: 24

2018-06-26 17:11  
Хижака рятує її їжа ))) .

Так і хочеться сказати їй - " не грайся з їжею" )))

Романтична дурниця в якій забувають одне але - Левиця не "святим духом" Харчується і росте )))) )

Ваш часовий пояс: GMT + 2 Години

Нова тема   Відповісти