Сімпсони у кіно / The Simpsons Movie (2007) Remux 1080p Ukr/Eng | Sub Ukr/Eng

Нові коментарі

Нова тема   Відповісти
Автор Повідомлення
boroznaya 
Попереджень: 1
Попереджень: 1 


З нами з: 02.11.12
Востаннє: 29.02.20
Повідомлень: 2943

2018-06-22 19:56  
Сімпсони у кіно / The Simpsons Movie (2007) Remux 1080p Ukr/Eng | Sub Ukr/Eng

Сімпсони у кіно / The Simpsons Movie (2007) Remux 1080p Ukr/Eng | Sub Ukr/Eng

«Подивіться на нашу сім'ю і порадійте за свою»


Жанр: анімація, комедія, пригодницький, сімейний
Країна: США



Кінокомпанія: 20th Century Fox Film Corporation, Gracie Films
Режисер: Девід Сільверман
Актори: Ден Кастелланета, Джулі Кавнер, Ненсі Картрайт, Ярдлі Сміт, Хенк Азарія, Гаррі Шірер, Памела Хейден, Тресс МакНілл, Альберт Брукс, Карл Відерготт, Марсія Воллес, Рассі Тейлор, Меггі Росвел, Філіп Розенталь, Біллі Джо Армстронг

Сюжет:
Після того, як Гомер скинув відходи в озеро, Спрінгфілд оголосили карантинною зоною і накрили гігантським скляним куполом, а місцеві жителі почали полювання на Сімпсонів за те, що їх відрізали від решти світу...


Тривалість: 01:26:47
Якість: Remux 1080p
Відео:
кодек:
розмір кадру: 1920x1080
бітрейт: 33 Mб/с

Аудіо # 1:
мова: українська
переклад: професійний дубльований
кодек: 5.1
бітрейт: 384 кб/с

Аудіо # 2:
мова: англійська
переклад: оригінал
кодек: -HD MA 5.1
бітрейт: 3633 кб/с

Субтитри # 1-2: [Full, Forced]
мова: українська
тип: програмні (м'які)
формат: *.srt

Субтитри # 3-4: [Forced, Full]
мова: англійська
тип: програмні (м'які)
формат: *.srt
Info
Код:
[b]General[/b]
Unique ID                   : 63290884934766085061287355009421677945 (0x2F9D618C829300522C66FFC4C8F61579)
Complete name               : D:\Фільми\Готові релізи\The Simpsons Movie (2007) [Ukr, Eng, sub. 2xUkr, 2xEng] Remux 1080p [Hurtom] by Zhuk_Mikola.
Format                      :
Format version              : Version 4 / Version 2
File size                   : 22.5 GiB
Duration                    : 1 h 26 min
Overall bit rate mode       : Variable
Overall bit rate            : 37.0 Mb/s
Encoded date                : UTC 2018-07-12 09:39:06
Writing application         : v20.0.0 ('I Am The Sun') 64-bit
Writing library             : libebml v1.3.5 + v1.4.8

[b]Video[/b]
ID                          : 1
Format                      : AVC
Format/Info                 : Advanced Video Codec
Format profile              : [email protected]
Format settings             : CABAC / 4 Ref Frames
Format settings, CABAC      : Yes
Format settings, ReFrames   : 4 frames
Codec ID                    : V_MPEG4/ISO/AVC
Duration                    : 1 h 26 min
Bit rate mode               : Variable
Bit rate                    : 33.0 Mb/s
Maximum bit rate            : 35.5 Mb/s
Width                       : 1 920 pixels
Height                      : 1 080 pixels
Display aspect ratio        : 16:9
Frame rate mode             : Constant
Frame rate                  : 23.976 (24000/1001) FPS
Standard                    : NTSC
Color space                 : YUV
Chroma subsampling          : 4:2:0
Bit depth                   : 8 bits
Scan type                   : Progressive
Bits/(Pixel*Frame)          : 0.665
Stream size                 : 20.0 GiB (89%)
Language                    : English
Default                     : Yes
Forced                      : No
Color range                 : Limited
Color primaries             : BT.709
Transfer characteristics    : BT.709
Matrix coefficients         : BT.709

[b]Audio #1[/b]
ID                          : 2
Format                      : AC-3
Format/Info                 : Audio Coding 3
Codec ID                    : A_AC3
Duration                    : 1 h 26 min
Bit rate mode               : Constant
Bit rate                    : 384 kb/s
Channel(s)                  : 6 channels
Channel positions           : Front: L C R, Side: L R, LFE
Sampling rate               : 48.0 kHz
Frame rate                  : 31.250 FPS (1536 SPF)
Bit depth                   : 16 bits
Compression mode            : Lossy
Stream size                 : 238 MiB (1%)
Title                       : Професійний дубльований (DVD)
Language                    : Ukrainian
Service kind                : Complete Main
Default                     : No
Forced                      : No

[b]Audio #2[/b]
ID                          : 3
Format                      :
Format/Info                 : Digital Theater Systems
Format profile              : MA / Core
Codec ID                    : A_DTS
Duration                    : 1 h 26 min
Bit rate mode               : Variable / Constant
Bit rate                    : 3 633 kb/s / 1 509 kb/s
Channel(s)                  : 6 channels
Channel positions           : Front: L C R, Side: L R, LFE
Sampling rate               : 48.0 kHz
Frame rate                  : 93.750 FPS (512 SPF)
Bit depth                   : 24 bits
Compression mode            : Lossless / Lossy
Stream size                 : 2.20 GiB (10%)
Language                    : English
Default                     : No
Forced                      : No

[b]Text #1[/b]
ID                          : 4
Format                      : UTF-8
Codec ID                    : S_TEXT/UTF8
Codec ID/Info               : UTF-8 Plain Text
Duration                    : 1 h 25 min
Bit rate                    : 91 b/s
Count of elements           : 1038
Stream size                 : 57.4 KiB (0%)
Title                       : Full
Language                    : Ukrainian
Default                     : No
Forced                      : No

[b]Text #2[/b]
ID                          : 5
Format                      : UTF-8
Codec ID                    : S_TEXT/UTF8
Codec ID/Info               : UTF-8 Plain Text
Duration                    : 1 h 11 min
Bit rate                    : 2 b/s
Count of elements           : 42
Stream size                 : 1.48 KiB (0%)
Title                       : Forsed
Language                    : Ukrainian
Default                     : No
Forced                      : No

[b]Text #3[/b]
ID                          : 6
Format                      : UTF-8
Codec ID                    : S_TEXT/UTF8
Codec ID/Info               : UTF-8 Plain Text
Duration                    : 1 h 25 min
Bit rate                    : 52 b/s
Count of elements           : 946
Stream size                 : 33.1 KiB (0%)
Title                       : Full
Language                    : English
Default                     : No
Forced                      : No

[b]Text #4[/b]
ID                          : 7
Format                      : UTF-8
Codec ID                    : S_TEXT/UTF8
Codec ID/Info               : UTF-8 Plain Text
Duration                    : 27 min 5 s
Bit rate                    : 0 b/s
Count of elements           : 3
Stream size                 : 88.0 Bytes (0%)
Title                       : Forsed
Language                    : English
Default                     : No
Forced                      : No
Скріншоти




Подяка пану Gelios за постер!

Джерело: &
Особиста оцінка: 10 - без зайвих вагань рекомендую всім!
Над релізом працював -
Не забуваємо подякувати релізеру!


Золотий реліз (завантажене не впливає на рейтинг)
 Трекер:    Зареєстрований   

Завантажити / скачати мультфільм українською



відео для новачків



 Зареєстрований:   2018-07-12 13:18
 Розмір:   22.46 GB 
 Оцінка мультфільму:   9/10 (Голосів: 20)
   
bot 
робот


З нами з: 30.09.07
Востаннє: 26.05.05
Повідомлень: 23422

2018-07-12 12:56  
Тему перенесено з Анонси релізів до форуму Фільми в HD


boroznaya

igor911 
Модератор відео


З нами з: 18.01.08
Востаннє: 29.02.20
Повідомлень: 14130

2018-07-12 14:15  
Info написано:
Text #2
ID : 5
Format : UTF-8
Title : Forsed
Language : Ukrainian
Default : No
Forced : No

При збірці релізу для українських форсованих (примусових) субтитрів треба виставляти прапорці "типова доріжка" та "примусове використання доріжки" в положення "так".

boroznaya 
Попереджень: 1
Попереджень: 1 


З нами з: 02.11.12
Востаннє: 29.02.20
Повідомлень: 2943

2018-07-12 19:47  
igor911, спасибі! Тепер знатиму!
jaral 
Забанено
Забанено


З нами з: 18.10.07
Востаннє: 21.01.20
Повідомлень: 981

2018-07-13 00:50  
Тут русифікований відеоряд?
boroznaya 
Попереджень: 1
Попереджень: 1 


З нами з: 02.11.12
Востаннє: 29.02.20
Повідомлень: 2943

2018-07-13 06:30  
jaral, ні! Відеоряд оригінальний!
neverlest 
Новенький


З нами з: 23.01.17
Востаннє: 27.02.20
Повідомлень: 14

2019-07-18 01:09  
Станьте хтось на роздачу, будьте добрі !
neverlest 
Новенький


З нами з: 23.01.17
Востаннє: 27.02.20
Повідомлень: 14

2019-07-19 00:53  
Станьте на роздачу хтось !! Обіцяю стояти на роздачі після скачування. Завжди допомагаю комусь, хтось просить стати на роздачу !
fatum69 
Частий відвідувач


З нами з: 10.12.16
Востаннє: 29.02.20
Повідомлень: 39

2019-07-26 10:04  
Клас!
Denver13 
Новенький


З нами з: 22.02.15
Востаннє: 22.02.20
Повідомлень: 1

2019-08-03 20:55  
Агов, є хто з сідуючих?
Ваш часовий пояс: GMT + 2 Години

Нова тема   Відповісти