Інший Світ 3: Повстання Ліканів / Underworld 3: Rise of the Lycans (2009) AVC Ukr/Eng | Sub Eng

Нові коментарі

Нова тема   Відповісти
Автор Повідомлення
staf777 
Попереджень: 1
Попереджень: 1 


З нами з: 16.11.16
Востаннє: 17.11.18
Повідомлень: 1753

2018-06-22 16:20  
Інший Світ 3: Повстання Ліканів / Underworld 3: Rise of the Lycans (2009) AVC Ukr/Eng | Sub Eng

Інший Світ 3: Повстання Ліканів / Underworld 3: Rise of the Lycans (2009) AVC Ukr/Eng | Sub Eng


Жанр: фентезі, жахи, бойовик, трилер
Країна: США



Кінокомпанія: Lakeshore Entertainment Screen Gems Inc. UW3 Film Productions
Режисер: Патрік Татопулос (Patrick Tatopoulos)
Актори: Майкл Шин, Білл Найи, Рона Мітре, Стівен Макінтош, Кевін Гревьє, Девід Эштон, Джеральдін Брофі

Сюжет:
Історія кохання та ненависті, що просліджує походження вікової кровної ворожнечі, між аристократичними вампірами, відомими як Торговці смертю і їх рабами. Молодий лікан на ім'я Люциан — раб і водночас природжений лідер, який об'єднує перевертнів, щоб виступити проти Віктора, жорстокого короля вампірів, який поневолив їх. Дочка Віктора-Соня йде супроти рідної крові,пристає на бік Люциана, і допомагає йому в його боротьбі проти смертоносної армії торговців смертю.Однак ціна кохання вампіра і перевертня - смерть... Ця частина є пріквелом до перших двох, і знята в нарочито похмурих і темних тонах


Тривалість: 01:32:28
Якість: AVC
Відео:
кодек:
розмір кадру: 1024x424
бітрейт: 2100 кб/с

Аудіо # 1:
мова: українська
переклад: професійний дубльований
кодек: 5.1
бітрейт: 384 кб/с

Аудіо # 2:
мова: англійська
переклад: оригінал
кодек: 5.1
бітрейт: 448 кб/с

Джерело озвучення:


Субтитри:
мова: англійська
тип: програмні (м'які)
формат: *.srt
Info
General
Unique ID : 190825656610192128122603752745988294617 (0x8F8FAF436814706CB91A47311A7487D9)
Complete name : H:\» Українське озвучення » Фільми\Жахи\Underworld 3 Rise of the Lycans (2009) AVC [Ukr][Eng][Sub Eng][Hurtom].
Format :
Format version : Version 4 / Version 2
File size : 1.89 GiB
Duration : 1 h 32 min
Overall bit rate : 2 931 kb/s
Movie name : Underworld 3: Rise of the Lycans (2009) AVC [Ukr][Eng][Sub Eng][Hurtom]
Encoded date : UTC 2018-06-22 14:08:52
Writing application : v9.8.0 ('Kuglblids') 64bit
Writing library : libebml v1.3.4 + v1.4.5
Cover : Yes
Attachments : cover.jpg

Video
ID : 1
Format : AVC
Format/Info : Advanced Video Codec
Format profile : [email protected]
Format settings : CABAC / 8 Ref Frames
Format settings, CABAC : Yes
Format settings, ReFrames : 8 frames
Codec ID : V_MPEG4/ISO/AVC
Duration : 1 h 32 min
Bit rate : 2 100 kb/s
Width : 1 024 pixels
Height : 424 pixels
Display aspect ratio : 2.40:1
Frame rate mode : Constant
Frame rate : 23.976 FPS
Color space : YUV
Chroma subsampling : 4:2:0
Bit depth : 8 bits
Scan type : Progressive
Bits/(Pixel*Frame) : 0.202
Stream size : 1.35 GiB (72%)
Writing library : core 92 r1510 33d382a
Encoding settings : cabac=1 / ref=8 / deblock=1:-2:-2 / analyse=0x3:0x133 / me=umh / subme=10 / psy=1 / psy_rd=1.00:0.10 / mixed_ref=1 / me_range=48 / chroma_me=1 / trellis=2 / 8x8dct=1 / cqm=0 / deadzone=21,11 / fast_pskip=0 / chroma_qp_offset=-3 / threads=3 / sliced_threads=0 / nr=0 / decimate=1 / interlaced=0 / constrained_intra=0 / bframes=8 / b_pyramid=2 / b_adapt=2 / b_bias=0 / direct=3 / wpredb=1 / wpredp=2 / keyint=250 / keyint_min=25 / scenecut=40 / intra_refresh=0 / rc_lookahead=50 / rc=2pass / mbtree=1 / bitrate=2100 / ratetol=1.0 / qcomp=0.60 / qpmin=10 / qpmax=51 / qpstep=4 / cplxblur=20.0 / qblur=0.5 / ip_ratio=1.40 / aq=1:1.00
Language : English
Default : No
Forced : No

Audio #1
ID : 2
Format : AC-3
Format/Info : Audio Coding 3
Codec ID : A_AC3
Duration : 1 h 32 min
Bit rate mode : Constant
Bit rate : 384 kb/s
Channel(s) : 6 channels
Channel positions : Front: L C R, Side: L R, LFE
Sampling rate : 48.0 kHz
Frame rate : 31.250 FPS (1536 SPF)
Bit depth : 16 bits
Compression mode : Lossy
Stream size : 254 MiB (13%)
Language : Ukrainian
Service kind : Complete Main
Default : Yes
Forced : Yes

Audio #2
ID : 3
Format : AC-3
Format/Info : Audio Coding 3
Codec ID : A_AC3
Duration : 1 h 32 min
Bit rate mode : Constant
Bit rate : 448 kb/s
Channel(s) : 6 channels
Channel positions : Front: L C R, Side: L R, LFE
Sampling rate : 48.0 kHz
Frame rate : 31.250 FPS (1536 SPF)
Bit depth : 16 bits
Compression mode : Lossy
Stream size : 296 MiB (15%)
Language : English
Service kind : Complete Main
Default : No
Forced : No

Text
ID : 4
Format : UTF-8
Codec ID : S_TEXT/UTF8
Codec ID/Info : UTF-8 Plain Text
Duration : 1 h 22 min
Bit rate : 33 b/s
Count of elements : 654
Stream size : 20.3 KiB (0%)
Language : English
Default : No
Forced : No
Скріншоти




Джерело: &


 Трекер:    Зареєстрований   

Завантажити / скачати фільм українською



відео для новачків



 Зареєстрований:   2018-06-22 16:47
 Розмір:   1.89 GB 
 Оцінка фільму:   10/10 (Голосів: 5)
   
bot 
робот


З нами з: 30.09.07
Востаннє: 26.05.05
Повідомлень: 20153

2018-06-22 16:47  
Тему перенесено з Анонси релізів до форуму Фільми


staf777

Ваш часовий пояс: GMT + 2 Години

Нова тема   Відповісти