Залишайтеся з нами / Stay Tuned (1992) AVC Ukr/Eng | Sub Eng

Нові коментарі

Нова тема   Відповісти
Автор Повідомлення
Anonymous 







2018-06-22 11:11  
Залишайтеся з нами / Stay Tuned (1992) AVC Ukr/Eng | Sub Eng

Залишайтеся з нами / Stay Tuned (1992) AVC Ukr/Eng | Sub Eng


Жанр: пригодницький, фентезі, комедія



Кінокомпанія: Morgan Creek Entertainment Group, Warner Bros
Режисер: Пітер Хаймс
Актори: Джон Ріттер, Пем Даубер, Джері Джонс, Девід Том, Хезер МакКомб.

Сюжет:
Всі хочуть «опинитися в телевізорі». Але для домосіда Роя Нейбла і його дружини Гелен це виходить буквально, коли сам диявол продає їм супутникову систему з 666 каналами. Вони опиняються по той бік екрану в кошмарні передачі: «Переїхати міс Дейзі», «Розтин багатих і знаменитих», «Пекельне MTV», «Колесо тортур», «Північне оголення до кісток», по їхньому сліду йде страшний «Робо-кіт». І у подружжя всього 24 години для того, щоб вижити і вирватися з телевізора у реальний світ.


Тривалість: 01:28:21
Якість:
Відео:
кодек:
розмір кадру: 1152x488
бітрейт: 2732 кб/с

Аудіо # 1:
мова: українська
переклад: багатоголосий закадровий
кодек: 1.0
бітрейт: 192 кб/с

Аудіо # 2:
мова: англійська
переклад: оригінал
кодек: E- 2.0
бітрейт: 224 кб/с

Субтитри:
мова: англійська
тип: програмні (м'які)
формат: *.srt
Скріншоти








MI
Complete name : H:\Films\90s\Stay Tuned (1992) AVC [Ukr.Eng].
Format :
Format version : Version 4 / Version 2
File size : 1.94 GiB
Duration : 1 h 28 min
Overall bit rate : 3 150 kb/s
Encoded date : UTC 2018-06-22 08:06:11
Writing application : v23.0.0 ('The Bride Said No') 64-bit
Writing library : libebml v1.3.6 + v1.4.9

Video
ID : 1
Format : AVC
Format/Info : Advanced Video Codec
Format profile : [email protected]
Format settings, CABAC : Yes
Format settings, RefFrames : 10 frames
Codec ID : V_MPEG4/ISO/AVC
Duration : 1 h 28 min
Bit rate : 2 732 kb/s
Width : 1 152 pixels
Height : 488 pixels
Display aspect ratio : 2.35:1
Frame rate mode : Constant
Frame rate : 23.976 (24000/1001) FPS
Color space : YUV
Chroma subsampling : 4:2:0
Bit depth : 8 bits
Scan type : Progressive
Bits/(Pixel*Frame) : 0.203
Stream size : 1.69 GiB (87%)
Writing library : core 152 r2851 ba24899
Encoding settings : cabac=1 / ref=10 / deblock=1:-1:-1 / analyse=0x3:0x113 / me=umh / subme=10 / psy=1 / psy_rd=1.00:0.20 / mixed_ref=1 / me_range=32 / chroma_me=1 / trellis=2 / 8x8dct=1 / cqm=0 / deadzone=21,11 / fast_pskip=0 / chroma_qp_offset=-3 / threads=6 / lookahead_threads=1 / sliced_threads=0 / nr=0 / decimate=0 / interlaced=0 / bluray_compat=0 / constrained_intra=0 / bframes=10 / b_pyramid=2 / b_adapt=2 / b_bias=0 / direct=3 / weightb=1 / open_gop=0 / weightp=2 / keyint=250 / keyint_min=23 / scenecut=40 / intra_refresh=0 / rc_lookahead=40 / rc=2pass / mbtree=0 / bitrate=2732 / ratetol=1.0 / qcomp=0.60 / qpmin=0 / qpmax=69 / qpstep=4 / cplxblur=20.0 / qblur=0.5 / vbv_maxrate=50000 / vbv_bufsize=62500 / nal_hrd=none / filler=0 / ip_ratio=1.40 / pb_ratio=1.30 / aq=1:1.00
Language : English
Default : Yes
Forced : No

Audio #1
ID : 2
Format : AC-3
Format/Info : Audio Coding 3
Format settings, Endianness : Big
Codec ID : A_AC3
Duration : 1 h 28 min
Bit rate mode : Constant
Bit rate : 192 kb/s
Channel(s) : 1 channel
Channel positions : Front: C
Sampling rate : 48.0 kHz
Frame rate : 31.250 FPS (1536 SPF)
Bit depth : 16 bits
Compression mode : Lossy
Stream size : 121 MiB (6%)
Title : ICTV
Language : Ukrainian
Service kind : Complete Main
Default : Yes
Forced : Yes

Audio #2
ID : 3
Format : E-AC-3
Format/Info : Enhanced Audio Coding 3
Format settings, Endianness : Big
Codec ID : A_EAC3
Duration : 1 h 28 min
Bit rate mode : Constant
Bit rate : 224 kb/s
Channel(s) : 2 channels
Channel positions : Front: L R
Sampling rate : 48.0 kHz
Frame rate : 187.500 FPS (256 SPF)
Compression mode : Lossy
Stream size : 142 MiB (7%)
Language : English
Service kind : Complete Main
Default : No
Forced : No

Text
ID : 4
Format : UTF-8
Codec ID : S_TEXT/UTF8
Codec ID/Info : UTF-8 Plain Text
Duration : 1 h 27 min
Bit rate : 63 b/s
Count of elements : 1539
Stream size : 40.4 KiB (0%)
Language : English
Default : No
Forced : No
Подяки: Запис та оцифровка VHS - Gorezcaid, синхронізація Dreven
Джерело:
Особиста оцінка: 8 - мені сподобалося


Срібний реліз (на рейтинг впливає 50% завантаженого)
 Трекер:    Зареєстрований   

Завантажити / скачати фільм українською



відео для новачків



 Зареєстрований:   2018-06-22 11:11
 Розмір:   1.94 GB 
 Оцінка фільму:   9.5/10 (Голосів: 6)
   
Ваш часовий пояс: GMT + 2 Години

Нова тема   Відповісти