Викрасти за 60 секунд / Gone in Sixty Seconds (2000) Remux 1080p Ukr/Eng | Sub Ukr/Eng

Нові коментарі

Нова тема   Відповісти
Автор Повідомлення
boroznaya 
Попереджень: 1
Попереджень: 1 


З нами з: 02.11.12
Востаннє: 23.09.20
Повідомлень: 2938

2018-06-21 17:04  
Викрасти за 60 секунд / Gone in Sixty Seconds (2000) Remux 1080p Ukr/Eng | Sub Ukr/Eng

Викрасти за 60 секунд / Gone in Sixty Seconds (2000) Remux 1080p Ukr/Eng | Sub Ukr/Eng


"Злочин на межі швидкості"


Жанр: бойовик, кримінал, трилер, екшн
Країна: США



Кінокомпанія: Touchstone Pictures, Jerry Bruckheimer Films
Режисер: Домінік Сена
Актори: Ніколас Кейдж, Джованні Рібізі, Анджеліна Джолі, Т.Дж.Кросс, Вільям Лі Скотт, Скотт Каан, Джеймс Дювал, Вілл Паттон, Делрой Ліндо, Тімоти Оліфант

Сюжет:
Що можна встигнути за 60 секунд? Викурити сигарету або випити чашку кави. Але тільки один професіонал у світі, легендарний злодій Мемфіс, може за лічені секунди викрасти будь-який автомобіль. Проте цього разу йому доведеться зробити неможливе: щоб урятувати свого брата, Мемфіс має за одну ніч викрасти 50 першокласних машин. Щоб вирватися з подвійного капкана мафії та поліції, він має дотримуватися одного принципу – не зупинятися…


Тривалість: 01:57:57
Якість: Remux 1080p
Відео:
кодек: MPEG2
розмір кадру: 1920x1080
бітрейт: 18,6 Мб/с

Аудіо # 1: ,
мова: українська
переклад: двоголосий закадровий
кодек: 2.0
бітрейт: 192 кб/с

Аудіо # 2:
мова: англійська
переклад: оригінал
кодек: 5.1
бітрейт: 640 кб/с

Субтитри:
мова: українська
тип: програмні (м'які)
формат: *.srt

Субтитри:
мова: англійська
тип: програмні (м'які)
формат: *.srt
Info
D:\Фільми\Готові релізи\Gone In Sixty Seconds (2000) [Ukr, Eng, sub. Ukr, Eng] Remux 1080p [Hurtom] by Zhuk_Mikola.
General
Unique ID : 166669212208952204225571881614385528009 (0x7D635299D99BA4A046C2218A1D6ABCC9)
Complete name : D:\Фільми\Готові релізи\Gone In Sixty Seconds (2000) [Ukr, Eng, sub. Ukr, Eng] Remux 1080p [Hurtom] by Zhuk_Mikola.
Format :
Format version : Version 4 / Version 2
File size : 16.4 GiB
Duration : 1h 58mn
Overall bit rate mode : Variable
Overall bit rate : 19.8 Mbps
Encoded date : UTC 2018-06-24 07:53:06
Writing application : v20.0.0 ('I Am The Sun') 64-bit
Writing library : libebml v1.3.5 + v1.4.8
DURATION : 01:50:56.608000000
NUMBER_OF_FRAMES : 1302
NUMBER_OF_BYTES : 75482
_STATISTICS_WRITING_APP : v20.0.0 ('I Am The Sun') 64-bit
_STATISTICS_WRITING_DATE_UTC : 2018-06-24 07:53:06
_STATISTICS_TAGS : BPS DURATION NUMBER_OF_FRAMES NUMBER_OF_BYTES

Video #1
ID : 1
Format : MPEG Video
Format version : Version 2
Format profile : [email protected]
Format settings, BVOP : No
Format settings, Matrix : Custom
Codec ID : V_MPEG2
Codec ID/Info : MPEG 1 or 2 Video
Duration : 1h 58mn
Bit rate mode : Variable
Bit rate : 18.6 Mbps
Maximum bit rate : 28.0 Mbps
Width : 1 920 pixels
Height : 1 080 pixels
Display aspect ratio : 16:9
Frame rate : 23.976 fps
Color space : YUV
Chroma subsampling : 4:2:0
Bit depth : 8 bits
Scan type : Progressive
Compression mode : Lossy
Bits/(Pixel*Frame) : 0.373
Stream size : 15.4 GiB (94%)
Language : English
Default : No
Forced : No

Audio #2
ID : 2
Format : AC-3
Format/Info : Audio Coding 3
Mode extension : CM (complete main)
Codec ID : A_AC3
Duration : 1h 58mn
Bit rate mode : Constant
Bit rate : 192 Kbps
Channel(s) : 2 channels
Channel positions : Front: L R
Sampling rate : 48.0 KHz
Bit depth : 16 bits
Compression mode : Lossy
Stream size : 163 MiB (1%)
Title : Двоголосий закадровий, 1+1
Language : Ukrainian
Default : Yes
Forced : No

Audio #3
ID : 3
Format : AC-3
Format/Info : Audio Coding 3
Mode extension : CM (complete main)
Codec ID : A_AC3
Duration : 1h 58mn
Bit rate mode : Constant
Bit rate : 640 Kbps
Channel(s) : 6 channels
Channel positions : Front: L C R, Side: L R, LFE
Sampling rate : 48.0 KHz
Bit depth : 16 bits
Compression mode : Lossy
Stream size : 544 MiB (3%)
Language : English
Default : No
Forced : No

Text #4
ID : 4
Format : UTF-8
Codec ID : S_TEXT/UTF8
Codec ID/Info : UTF-8 Plain Text
Title : Full
Language : Ukrainian
Default : No
Forced : No

Text #5
ID : 5
Format : UTF-8
Codec ID : S_TEXT/UTF8
Codec ID/Info : UTF-8 Plain Text
Language : English
Default : No
Forced : No
Скріншоти








Спасибі панам: Bohdan237 за запис з ТБ, Arsenfpu за синхронізацію, ratbol'у за розпізнавання та редагування субтитрів, thefir за постер!

Джерело: &
Особиста оцінка: 8 - мені сподобалося

Не забуваємо Подякувати релізеру!


Золотий реліз (завантажене не впливає на рейтинг)
 Трекер:    Зареєстрований   

Завантажити / скачати фільм українською



відео для новачків



 Зареєстрований:   2018-06-24 12:39
 Розмір:   16.43 GB 
 Оцінка фільму:   9.4/10 (Голосів: 20)
   
Space707 
Попереджень: 1
Попереджень: 1 


З нами з: 20.01.15
Востаннє: 12.09.20
Повідомлень: 106

2018-06-21 20:32  
Фільм вартий уваги.
Boyavor 
Свій


З нами з: 03.10.12
Востаннє: 25.08.20
Повідомлень: 81

2018-06-22 22:33  
Вже класика Wink (1)
bot 
робот


З нами з: 30.09.07
Востаннє: 26.05.05
Повідомлень: 25580

2018-06-24 12:38  
Тему перенесено з Анонси релізів до форуму Фільми в HD


boroznaya

boroznaya 
Попереджень: 1
Попереджень: 1 


З нами з: 02.11.12
Востаннє: 23.09.20
Повідомлень: 2938

2018-06-24 13:17  
Фільм "Викрасти за 60 секунд" на роздачі!
Приємного перегляду, Гуртомівці!

powerball 
Новенький


З нами з: 23.02.17
Востаннє: 22.09.20
Повідомлень: 11

2018-06-25 19:13  
кращий фільм)
[email protected] 
VIP


З нами з: 25.03.17
Востаннє: 21.09.20
Повідомлень: 551

2019-02-03 04:13  
Класний фільм
Ваш часовий пояс: GMT + 2 Години

Нова тема   Відповісти