Байки зі склепу: Лицар демонів / Tales from the Crypt: Demon Knight (1995) AVC 2xUkr/Eng | Sub Eng

Нові коментарі

Нова тема   Відповісти
Автор Повідомлення
Anonymous 







2018-06-21 09:13  
Байки зі склепу: Лицар демонів / Tales from the Crypt: Demon Knight (1995) AVC 2xUkr/Eng | Sub Eng

Байки зі склепу: Лицар демонів / Tales from the Crypt: Demon Knight (1995) AVC 2xUkr/Eng | Sub Eng


Жанр: бойовик, жахи, трилер
Країна: США



Кінокомпанія: Tales From The Crypt Holdings, Universal Pictures
Режисер: Ернест Дікерсон
Актори: Джон Кассір, Біллі Зейн, Вільям Садлер, Джада Пінкет Сміт, Чейсі Лейн, Чарльз Флейшер, Пеґґі Трентіні та інші.

Сюжет:
Дві «людини», що живуть вже не першу сотню років, приїжджають в маленьке містечко. Один з них, повелитель демонів, може наробити їх цілу купу зі своєї крові. А другий намагається його перемогти за допомогою крові розбійника Варравви, розп'ятого поруч із Христом. Містилася ця кров в сьомому ключі, необхідному Нечистому для остаточного оволодіння світом. Учасниками цієї насиченої кошмарами боротьби виявилися кілька звичайних громадян, про що вони незабаром дуже пошкодували ...


Тривалість: 01:32:23
Якість: AVC
Відео:
кодек:
розмір кадру: 1080 х 586
бітрейт: 2433 кб/с

Аудіо # 1:
мова: українська
переклад: багатоголосий закадровий
кодек: 2.0 (stereo)
бітрейт: 192 кб/с

Аудіо # 2:
мова: українська
переклад: багатоголосий закадровий
кодек: 2.0
бітрейт: 192 кб/с

Аудіо # 3:
мова: англійська
переклад: оригінал
кодек: HE- 5.1
бітрейт: ~192 кб/с

Субтитри:
мова: англійська
тип: пререндерні
формат: PGS
Info
Video
ID : 1
Format : AVC
Format/Info : Advanced Video Codec
Format profile : [email protected]
Format settings : CABAC / 11 Ref Frames
Format settings, CABAC : Yes
Format settings, ReFrames : 11 frames
Codec ID : V_MPEG4/ISO/AVC
Duration : 1 h 32 min
Nominal bit rate : 2 433 kb/s
Width : 1 080 pixels
Height : 586 pixels
Display aspect ratio : 1.85:1
Frame rate mode : Constant
Frame rate : 23.976 (24000/1001) FPS
Color space : YUV
Chroma subsampling : 4:2:0
Bit depth : 8 bits
Scan type : Progressive
Bits/(Pixel*Frame) : 0.160
Title : MPEG-4, 1080x586, 23.976 fps ~2433 kbps
Writing library : core 142 r2479 dd79a61
Encoding settings : cabac=1 / ref=11 / deblock=1:-3:-2 / analyse=0x3:0x133 / me=umh / subme=11 / psy=1 / psy_rd=1.00:0.15 / mixed_ref=1 / me_range=32 / chroma_me=1 / trellis=2 / 8x8dct=1 / cqm=0 / deadzone=21,11 / fast_pskip=0 / chroma_qp_offset=-3 / threads=6 / lookahead_threads=1 / sliced_threads=0 / nr=0 / decimate=1 / interlaced=0 / bluray_compat=0 / constrained_intra=0 / bframes=16 / b_pyramid=2 / b_adapt=2 / b_bias=0 / direct=3 / weightb=1 / open_gop=0 / weightp=2 / keyint=240 / keyint_min=24 / scenecut=40 / intra_refresh=0 / rc_lookahead=60 / rc=2pass / mbtree=0 / bitrate=2433 / ratetol=1.0 / qcomp=0.60 / qpmin=0 / qpmax=69 / qpstep=4 / cplxblur=20.0 / qblur=0.5 / vbv_maxrate=62500 / vbv_bufsize=78125 / nal_hrd=none / filler=0 / ip_ratio=1.40 / pb_ratio=1.30 / aq=1:1.00
Language : English
Default : Yes
Forced : No
Color range : Limited
Color primaries : BT.709
Transfer characteristics : BT.709
Matrix coefficients : BT.709
Statistics Tags Issue : v7.8.0 ('River Man') 64bit built on Mar 27 2015 16:31:37 2018-06-21 06:51:35 / v7.8.0 ('River Man') 64bit built on Mar 27 2015 16:31:37 2018-06-21 06:51:35 / UTC
FromStats_BitRate : 2434420
FromStats_Duration : 01:32:22.954000000
FromStats_FrameCount : 132898
FromStats_StreamSize : 1686734908

Audio #1
ID : 2
Format : AC-3
Format/Info : Audio Coding 3
Codec ID : A_AC3
Duration : 1 h 32 min
Bit rate mode : Constant
Bit rate : 192 kb/s
Channel(s) : 2 channels
Channel positions : Front: L R
Sampling rate : 48.0 kHz
Frame rate : 31.250 FPS (1536 SPF)
Bit depth : 16 bits
Compression mode : Lossy
Delay relative to video : -105 ms
Stream size : 127 MiB (6%)
Title : Cine+
Language : Ukrainian
Service kind : Complete Main
Default : Yes
Forced : Yes
Statistics Tags Issue : v7.8.0 ('River Man') 64bit built on Mar 27 2015 16:31:37 2018-06-21 06:51:35 / v7.8.0 ('River Man') 64bit built on Mar 27 2015 16:31:37 2018-06-21 06:51:35 / UTC
FromStats_BitRate : 192000
FromStats_Duration : 01:32:22.976000000
FromStats_FrameCount : 173218
FromStats_StreamSize : 133031424

Audio #2
ID : 3
Format : AC-3
Format/Info : Audio Coding 3
Codec ID : A_AC3
Duration : 1 h 32 min
Bit rate mode : Constant
Bit rate : 192 kb/s
Channel(s) : 2 channels
Channel positions : Front: L R
Sampling rate : 48.0 kHz
Frame rate : 31.250 FPS (1536 SPF)
Bit depth : 16 bits
Compression mode : Lossy
Delay relative to video : -105 ms
Stream size : 127 MiB (6%)
Title : TRK Ukrajina
Language : Ukrainian
Service kind : Complete Main
Default : No
Forced : No
Statistics Tags Issue : v7.8.0 ('River Man') 64bit built on Mar 27 2015 16:31:37 2018-06-21 06:51:35 / v7.8.0 ('River Man') 64bit built on Mar 27 2015 16:31:37 2018-06-21 06:51:35 / UTC
FromStats_BitRate : 192000
FromStats_Duration : 01:32:22.944000000
FromStats_FrameCount : 173217
FromStats_StreamSize : 133030656

Audio #3
ID : 4
Format :
Format/Info : Advanced Audio Codec
Format profile : HE- / LC
Format settings : NBC
Codec ID : A_AAC-5
Duration : 1 h 32 min
Channel(s) : 6 channels
Channel positions : Front: L C R, Side: L R, LFE
Sampling rate : 48.0 kHz / 24.0 kHz
Frame rate : 23.438 FPS (1024 SPF)
Compression mode : Lossy
Delay relative to video : -105 ms
Title : HE- 6 ch, 24|48 kHz ~192 kbps - Original
Language : English
Default : No
Forced : No
Statistics Tags Issue : v7.8.0 ('River Man') 64bit built on Mar 27 2015 16:31:37 2018-06-21 06:51:35 / v7.8.0 ('River Man') 64bit built on Mar 27 2015 16:31:37 2018-06-21 06:51:35 / UTC
FromStats_BitRate : 192000
FromStats_Duration : 01:32:22.912000000
FromStats_FrameCount : 129912
FromStats_StreamSize : 133029889

Text
ID : 5
Format : PGS
Muxing mode : zlib
Codec ID : S_HDMV/PGS
Codec ID/Info : Picture based subtitle format used on BDs/HD-DVDs
Language : English
Default : No
Forced : No
Statistics Tags Issue : v7.8.0 ('River Man') 64bit built on Mar 27 2015 16:31:37 2018-06-21 06:51:35 / v7.8.0 ('River Man') 64bit built on Mar 27 2015 16:31:37 2018-06-21 06:51:35 / UTC
FromStats_BitRate : 6610
FromStats_Duration : 01:29:54.848000000
FromStats_FrameCount : 1840
FromStats_StreamSize : 4457511

Menu
00:00:00.000 : :Chapter 1
00:04:59.799 : :Chapter 2
00:09:59.515 : :Chapter 3
00:14:59.440 : :Chapter 4
00:19:59.615 : :Chapter 5
00:24:59.790 : :Chapter 6
00:30:00.048 : :Chapter 7
00:34:59.847 : :Chapter 8
00:39:59.230 : :Chapter 9
00:45:00.030 : :Chapter 10
00:49:59.913 : :Chapter 11
00:54:59.337 : :Chapter 12
00:59:59.137 : :Chapter 13
01:04:59.896 : :Chapter 14
01:10:00.070 : :Chapter 15
01:14:59.453 : :Chapter 16
01:19:59.211 : :Chapter 17
01:25:00.095 : :Chapter 18
01:29:59.727 : :Chapter 19
Скріншоти






Джерело:


Срібний реліз (на рейтинг впливає 50% завантаженого)
 Трекер:    Зареєстрований   

Завантажити / скачати фільм українською



відео для новачків



 Зареєстрований:   2018-06-21 09:13
 Розмір:   1.95 GB 
 Оцінка фільму:   9.6/10 (Голосів: 10)
   
igor911 
Відео Гуртом
Відео Гуртом


З нами з: 18.01.08
Востаннє: 18.11.18
Повідомлень: 11413

2018-06-21 09:34  
Anonymous написано:
Sub Eng

Треба додати пререндерні саби в опис.

Ваш часовий пояс: GMT + 2 Години

Нова тема   Відповісти