Ямакасі. Нові самураї / Yamakasi. Les samouraïs des temps modernes (2001) 720p Ukr/Fre

Нові коментарі

Нова тема   Відповісти
Останній раз роздавалося Hlop123 (2020-01-28)
Автор Повідомлення
Anonymous 







2018-06-20 22:25  
Ямакасі. Нові самураї / Yamakasi. Les samouraïs des temps modernes (2001) 720p Ukr/Fre

Ямакасі. Нові самураї / Yamakasi. Les samouraïs des temps modernes (2001) 720p Ukr/Fre


Жанр: драма, кримінальний, екшн
Країна: Франція



Кінокомпанія: EuropaCorp, Leeloo Productions, Canal+
Режисер: Аріель Зейтон (Ariel Zeitoun), Жюльєн сері (Julien Seri)
Актори: Шау Бель Дін (Châu Belle Dinh), Вільямс Бель (Williams Belle), Малік Дюф (Malik Diouf), Ян Гнаутра (Yann Hnautra), Ґілен Нґуба-Боєке (Guylain N'Guba-Boyeke) та інші

Сюжет:
Ямакасі - чудова сімка молодих людей, які, продовжуючи традиції таємничих «ніндзя», створили своє власне мистецтво: мистецтво переміщення. Вони не бояться ніяких небезпек і зберігають незворушність у будь-яких ситуаціях. Вони піднімаються на хмарочоси, роблять запаморочливі стрибки з висоти, польоти в повітрі. У кожного своя особливість, свій «ковзан». Молодь захоплюється ними й намагається їх наслідувати. Але один раз відбувається нещасний випадок. Ямакасі повинні діяти швидко, рішуче й скористатися своїм умінням, щоб урятувати життя людини.


Тривалість: 01:26:54
Якість: 720p
Відео:
кодек:
розмір кадру: [email protected]
бітрейт: 4922 кб/с

Аудіо # 1:
мова: українська
переклад: багатоголосий закадровий
кодек: 2.0
бітрейт: 192 кб/с

Аудіо # 2:
мова: французька
переклад: оригінал
кодек: 5.1
бітрейт: 448 кб/с
Info
Complete name : E:\Yamakasi.Les.samouraïs.des.temps.modernes.2001.720p..Ukr.Fre.
Format :
Format version : Version 4 / Version 2
File size : 2.99 GiB
Duration : 1 h 26 min
Overall bit rate : 4 922 kb/s
Movie name : Release by spartanec163
Encoded date : UTC 2018-06-08 13:17:00
Writing application : v23.0.0 ('The Bride Said No') 64-bit
Writing library : libebml v1.3.6 + v1.4.9

Video
ID : 1
Format : AVC
Format/Info : Advanced Video Codec
Format profile : [email protected]
Format settings, CABAC : No
Format settings, RefFrames : 2 frames
Codec ID : V_MPEG4/ISO/AVC
Duration : 1 h 26 min
Bit rate : 4 281 kb/s
Width : 960 pixels
Height : 546 pixels
Display aspect ratio : 2.35:1
Frame rate mode : Constant
Frame rate : 25.000 FPS
Color space : YUV
Chroma subsampling : 4:2:0
Bit depth : 8 bits
Scan type : Progressive
Bits/(Pixel*Frame) : 0.327
Stream size : 2.60 GiB (87%)
Title : 720p
Language : French
Default : Yes
Forced : No
Color range : Limited
Color primaries : BT.709
Transfer characteristics : BT.709
Matrix coefficients : BT.709

Audio #1
ID : 2
Format : AC-3
Format/Info : Audio Coding 3
Format settings, Endianness : Big
Codec ID : A_AC3
Duration : 1 h 26 min
Bit rate mode : Constant
Bit rate : 192 kb/s
Channel(s) : 2 channels
Channel positions : Front: L R
Sampling rate : 48.0 kHz
Frame rate : 31.250 FPS (1536 SPF)
Bit depth : 16 bits
Compression mode : Lossy
Stream size : 119 MiB (4%)
Title : Новий канал
Language : Ukrainian
Service kind : Complete Main
Default : Yes
Forced : Yes

Audio #2
ID : 3
Format : AC-3
Format/Info : Audio Coding 3
Format settings, Endianness : Big
Codec ID : A_AC3
Duration : 1 h 26 min
Bit rate mode : Constant
Bit rate : 448 kb/s
Channel(s) : 6 channels
Channel positions : Front: L C R, Side: L R, LFE
Sampling rate : 48.0 kHz
Frame rate : 31.250 FPS (1536 SPF)
Bit depth : 16 bits
Compression mode : Lossy
Stream size : 278 MiB (9%)
Title : 5.1 448Kbps (Оригинал)
Language : French
Service kind : Complete Main
Default : No
Forced : No

Menu
00:00:00.000 : en:1
00:04:21.000 : en:2
00:09:02.000 : en:3
00:15:04.000 : en:4
00:20:38.000 : en:5
00:25:51.000 : en:6
00:30:19.000 : en:7
00:35:17.000 : en:8
00:39:08.000 : en:9
00:45:48.000 : en:10
00:51:33.000 : en:11
00:55:35.000 : en:12
00:59:21.000 : en:13
01:05:15.000 : en:14
01:10:18.000 : en:15
01:15:18.000 : en:16
Скріншоти







Джерело: &
Подяки:
- п. Sando7 за запис з ТБ;
- п. Воїн'у за українізований постер
Особиста оцінка: 10 - без зайвих вагань рекомендую всім!


Срібний реліз (на рейтинг впливає 50% завантаженого)
 Трекер:    Зареєстрований   

Завантажити / скачати фільм українською



відео для новачків



 Зареєстрований:   2018-06-20 22:25
 Розмір:   2.99 GB 
 Оцінка фільму:   9.2/10 (Голосів: 11)
   
Інші релізи
portsmuth 
Свій


З нами з: 10.06.14
Востаннє: 28.01.20
Повідомлень: 75

2019-12-30 21:42  
Фільм в цілому добрий, несе в собі ідею Робін Гудів сучасності, вчить допомагати близьким і не відвертатися в скрутну хвилину.

Акторським талантом герої не блищать, хоча він особливо і не потрібен. Вони компенсували не дуже вдалу гру відмінними трюками, від яких відвисає щелепа. Начебто вони самі все робили, без каскадерів.

Фільм рекомендую до перегляду: легкий, добрий, з купою захоплюючих трюків.

Ваш часовий пояс: GMT + 2 Години

Нова тема   Відповісти