Красуня / Siebenschön (2014) 720p Ukr/Ger

Нові коментарі

Нова тема   Відповісти
Автор Повідомлення
Anonymous 







2018-06-20 16:51  
Красуня / Siebenschön (2014) 720p Ukr/Ger

Красуня / Siebenschön (2014) 720p Ukr/Ger


Жанр: сімейний, мелодрама, казка, екранізація
Країна: Німеччина



Режисер: Карстен Фібелер
Актори: Ксенія Ассенца, Франц Дінда, Міхаель Кінд, Флоріан Панцнер, Естер Швейнс, Тереза Вайсбах, Густав-Петер Велер

Сюжет:
За однойменною казкою німецького письменника Людвіга Бехштейна. Красуня - донька бідних селян. Через її красу всі звертають на неї увагу, але дівчина хоче присвятити себе медицині. У пошуках свого місця і своєї любові їй доведеться пережити багато пригод...


Тривалість: 00:59:00
Якість:
Відео:
кодек:
розмір кадру: 1280x720
бітрейт: 3912 кб/с

Аудіо # 1:
мова: українська
переклад: професійний дубльований |
бітрейт: 192 кб/с

Аудіо # 2:
мова: німецька
переклад: оригінал
кодек: 5.1
бітрейт: 384 кб/с
Info
General
Unique ID : 178206408711823181623765607680185127101 (0x86114E4E48111B5BBA8479D6A93AD0BD)
Format :
Format version : Version 4 / Version 2
File size : 1.89 GiB
Duration : 59 min 0 s
Overall bit rate : 4 579 kb/s
Encoded date : UTC 2018-06-20 14:39:47
Writing application : v6.1.0 ('Old Devil') built on Mar 4 2013 09:10:42
Writing library : libebml v1.3.0 + v1.4.0

Video
ID : 1
Format : AVC
Format/Info : Advanced Video Codec
Format profile : [email protected]
Format settings, CABAC : Yes
Format settings, ReFrames : 5 frames
Codec ID : V_MPEG4/ISO/AVC
Duration : 59 min 0 s
Bit rate : 3 912 kb/s
Width : 1 280 pixels
Height : 720 pixels
Display aspect ratio : 16:9
Frame rate mode : Constant
Frame rate : 25.000 FPS
Color space : YUV
Chroma subsampling : 4:2:0
Bit depth : 8 bits
Scan type : Progressive
Bits/(Pixel*Frame) : 0.170
Stream size : 1.61 GiB (85%)
Writing library : core 142 r2479 dd79a61
Encoding settings : cabac=1 / ref=5 / deblock=1:-1:-1 / analyse=0x3:0x113 / me=umh / subme=8 / psy=1 / psy_rd=1.00:0.15 / mixed_ref=1 / me_range=16 / chroma_me=1 / trellis=1 / 8x8dct=1 / cqm=0 / deadzone=21,11 / fast_pskip=1 / chroma_qp_offset=-3 / threads=12 / lookahead_threads=2 / sliced_threads=0 / nr=0 / decimate=1 / interlaced=0 / bluray_compat=0 / constrained_intra=0 / bframes=3 / b_pyramid=2 / b_adapt=2 / b_bias=0 / direct=3 / weightb=1 / open_gop=0 / weightp=2 / keyint=250 / keyint_min=24 / scenecut=40 / intra_refresh=0 / rc_lookahead=50 / rc=crf / mbtree=1 / crf=19.0 / qcomp=0.60 / qpmin=0 / qpmax=69 / qpstep=4 / ip_ratio=1.40 / aq=1:1.00
Language : German
Default : Yes
Forced : No
Statistics Tags Issue : v8.3.0 ('Over the Horizon') 32bit 2016-12-05 15:25:27 / v6.1.0 ('Old Devil') built on Mar 4 2013 09:10:42 2018-06-20 14:39:47
FromStats_BitRate : 4000696
FromStats_Duration : 00:59:00.360000000
FromStats_FrameCount : 88509
FromStats_StreamSize : 1770488049

Audio #1
ID : 2
Format : AC-3
Format/Info : Audio Coding 3
Format settings, Endianness : Big
Codec ID : A_AC3
Duration : 59 min 0 s
Bit rate mode : Constant
Bit rate : 192 kb/s
Channel(s) : 2 channels
Channel positions : Front: L R
Sampling rate : 48.0 kHz
Frame rate : 31.250 FPS (1536 spf)
Bit depth : 16 bits
Compression mode : Lossy
Stream size : 81.0 MiB (4%)
Title : Ukr
Language : Ukrainian
Service kind : Complete Main
Default : Yes
Forced : Yes

Audio #2
ID : 3
Format : AC-3
Format/Info : Audio Coding 3
Format settings, Endianness : Big
Codec ID : A_AC3
Duration : 59 min 0 s
Bit rate mode : Constant
Bit rate : 384 kb/s
Channel(s) : 6 channels
Channel positions : Front: L C R, Side: L R, LFE
Sampling rate : 48.0 kHz
Frame rate : 31.250 FPS (1536 spf)
Bit depth : 16 bits
Compression mode : Lossy
Delay relative to video : 12 ms
Stream size : 162 MiB (8%)
Title : GER
Language : German
Service kind : Complete Main
Default : No
Forced : No
Statistics Tags Issue : v8.3.0 ('Over the Horizon') 32bit 2016-12-05 15:25:27 / v6.1.0 ('Old Devil') built on Mar 4 2013 09:10:42 2018-06-20 14:39:47
FromStats_BitRate : 384000
FromStats_Duration : 00:58:59.104000000
FromStats_FrameCount : 110597
FromStats_StreamSize : 169876992
Скріншоти





За запис звуку з ТБ дякуємо Krigg070 і Bohdan237
Особиста подяка пану denixx за надану матеріальну допомогу на підтримку цього і майбутніх релізів.

Джерело:


 Трекер:    Зареєстрований   

Завантажити / скачати фільм українською



відео для новачків



 Зареєстрований:   2018-06-20 16:51
 Розмір:   1.89 GB 
 Оцінка фільму:   9.5/10 (Голосів: 4)
   
Інші релізи
   Красуня / Siebenschön (2014) Ukr/Ger drop_plz  2 / 0   904 MB   2018-06-20 16:45 
Arina_ 
Новенький


З нами з: 07.02.17
Востаннє: 30.10.18
Повідомлень: 4

2018-10-09 01:59  
Дуже легкий фільм. Для сімейного перегляду саме те, думаю дітям також сподобається.
Ваш часовий пояс: GMT + 2 Години

Нова тема   Відповісти