Своя людина / The Insider (1999) mini 1080p H.265 Ukr/Eng | sub Eng

Нові коментарі

Нова тема   Відповісти
Автор Повідомлення
ukr_anonymous 
Попереджень: 1
Попереджень: 1 


З нами з: 17.04.18
Востаннє: 26.06.19
Повідомлень: 232

2018-06-19 14:33  
Своя людина / The Insider (1999) mini 1080p H.265 Ukr/Eng | sub Eng

Своя людина / The Insider (1999) mini 1080p H.265 Ukr/Eng | sub Eng


Жанр: біографічний, драма, трилер
Країна: США



Кінокомпанія: Blue Lion Entertainment, Forward Pass, Kaitz Productions
Режисер: Майкл Манн
Актори: Аль Пачіно, Рассел Кроу, Крістофер Пламмер, Даян Венора, Філіп Бейкер Гол, Ліндсей Круз, Дебі Мазар, Стівен Тоболовскі, Колм Фіорі, Брюс Маꥳлл.

Сюжет:
Джеффрі Вайґенда звільняють з поста віце-президента найбільшої тютюнової компанії за те, що він протестує проти використання в тютюновій продукції компонента, що викликає у курців наркотичну залежність. Ловелл Берґмен, продюсер популярного телешоу, дізнається про це і переконує Вайґенда виступити з викривальним інтерв'ю по телебаченню... Це дуже не подобається стовпам тютюнової індустрії, які запевняють у нешкідливості виробленої продукції. Олігархи приймають найсуворіші заходи, щоб інформація не стала надбанням гласності. Від Вайґенда йде дружина, Ловелла Берґмена відправляють у відпустку. Там, де задіяні великі гроші, даремно боротися за справедливість, але Берґмен і Вайґенд не припиняють боротьбу.


Тривалість: 02:37:46
Якість:
Відео:
кодек: H.265 (HEVC)
розмір кадру: 1920 х 804
бітрейт: 4 394 кб/с
бітова глибина: 10 біт
Увага! Перед завантаженням переконайтесь, що ваш пристрій відтворення (та/або ПЗ) підтримує H.265 (HEVC)

Аудіо # 1:
мова: українська
переклад: багатоголосий закадровий
кодек: 5.1
бітрейт: 384 кб/с

Аудіо # 2:
мова: англійська
переклад: оригінал
кодек: 5.1
бітрейт: 448 кб/с

Субтитри:
мова: англійська
тип: програмні (м'які)
формат: *.srt
Info
General
Unique ID : 244044974940147338058649871455160179840 (0xB7995A3D88E75D0FB1BCA0E7E1651C80)
Complete name : E:\video\The Insider (1999) 1080p H.265 [UKR_ENG].
Format :
Format version : Version 4 / Version 2
File size : 5.76 GiB
Duration : 2 h 37 min
Overall bit rate : 5 229 kb/s
Movie name : The Insider
Encoded date : UTC 2018-06-19 11:04:34
Writing application : v22.0.0 ('At The End Of The World') 64-bit
Writing library : libebml v1.3.5 + v1.4.8
Cover : Yes
Attachments : Cover.jpg

Video
ID : 1
Format : HEVC
Format/Info : High Efficiency Video Coding
Format profile : Main [email protected]@Main
Codec ID : V_MPEGH/ISO/HEVC
Duration : 2 h 37 min
Bit rate : 4 394 kb/s
Width : 1 920 pixels
Height : 804 pixels
Display aspect ratio : 2.40:1
Frame rate mode : Constant
Frame rate : 23.976 (24000/1001) FPS
Color space : YUV
Chroma subsampling : 4:2:0
Bit depth : 10 bits
Bits/(Pixel*Frame) : 0.119
Stream size : 4.84 GiB (84%)
Writing library : x265 2.8+1-478bfe2b7673:[Windows][GCC 7.3.0][64 bit] 10bit
Encoding settings : cpuid=1111039 / frame-threads=3 / numa-pools=8 / wpp / no-pmode / no-pme / no-psnr / no-ssim / log-level=2 / input-csp=1 / input-res=1920x804 / interlace=0 / total-frames=226980 / level-idc=0 / high-tier=1 / uhd-bd=0 / ref=4 / no-allow-non-conformance / no-repeat-headers / annexb / no-aud / no-hrd / info / hash=0 / no-temporal-layers / open-gop / min-keyint=23 / keyint=250 / gop-lookahead=0 / bframes=4 / b-adapt=2 / b-pyramid / bframe-bias=0 / rc-lookahead=25 / lookahead-slices=4 / scenecut=40 / radl=0 / no-intra-refresh / ctu=64 / min-cu-size=8 / rect / no-amp / max-tu-size=32 / tu-inter-depth=1 / tu-intra-depth=1 / limit-tu=0 / rdoq-level=2 / dynamic-rd=0.00 / no-ssim-rd / signhide / no-tskip / nr-intra=0 / nr-inter=0 / no-constrained-intra / strong-intra-smoothing / max-merge=3 / limit-refs=3 / limit-modes / me=3 / subme=3 / merange=57 / temporal-mvp / weightp / no-weightb / no-analyze-src-pics / deblock=0:0 / sao / no-sao-non-deblock / rd=4 / no-early-skip / rskip / no-fast-intra / no-tskip-fast / no-cu-lossless / no-b-intra / no-splitrd-skip / rdpenalty=0 / psy-rd=2.00 / psy-rdoq=1.00 / no-rd-refine / no-lossless / cbqpoffs=0 / crqpoffs=0 / rc=abr / bitrate=4396 / qcomp=0.60 / qpstep=4 / stats-write=0 / stats-read=2 / cplxblur=20.0 / qblur=0.5 / ipratio=1.40 / pbratio=1.30 / aq-mode=3 / aq-strength=1.00 / cutree / zone-count=0 / no-strict-cbr / qg-size=32 / no-rc-grain / qpmax=69 / qpmin=0 / no-const-vbv / sar=0 / overscan=0 / videoformat=5 / range=0 / colorprim=2 / transfer=2 / colormatrix=2 / chromaloc=0 / display-window=0 / max-cll=0,0 / min-luma=0 / max-luma=1023 / log2-max-poc-lsb=8 / vui-timing-info / vui-hrd-info / slices=1 / no-opt-qp-pps / no-opt-ref-list-length-pps / multi-pass-opt-rps / scenecut-bias=0.05 / no-opt-cu-delta-qp / aq-motion / no-hdr / no-hdr-opt / no-dhdr10-opt / no-idr-recovery-sei / analysis-reuse-level=5 / scale-factor=0 / refine-intra=0 / refine-inter=0 / refine-mv=0 / no-limit-sao / ctu-info=0 / no-lowpass-dct / refine-mv-type=0 / copy-pic=1 / max-ausize-factor=1.0 / no-dynamic-refine / no-single-sei
Default : Yes
Forced : No

Audio #1
ID : 2
Format : AC-3
Format/Info : Audio Coding 3
Codec ID : A_AC3
Duration : 2 h 37 min
Bit rate mode : Constant
Bit rate : 384 kb/s
Channel(s) : 6 channels
Channel positions : Front: L C R, Side: L R, LFE
Sampling rate : 48.0 kHz
Frame rate : 31.250 FPS (1536 SPF)
Bit depth : 16 bits
Compression mode : Lossy
Stream size : 433 MiB (7%)
Title : Ukr for Hurtom.com [1+1]
Language : Ukrainian
Service kind : Complete Main
Default : Yes
Forced : No

Audio #2
ID : 3
Format : AC-3
Format/Info : Audio Coding 3
Codec ID : A_AC3
Duration : 2 h 37 min
Bit rate mode : Constant
Bit rate : 448 kb/s
Channel(s) : 6 channels
Channel positions : Front: L C R, Side: L R, LFE
Sampling rate : 48.0 kHz
Frame rate : 31.250 FPS (1536 SPF)
Bit depth : 16 bits
Compression mode : Lossy
Stream size : 506 MiB (9%)
Language : English
Service kind : Complete Main
Default : No
Forced : No

Text
ID : 4
Format : UTF-8
Codec ID : S_TEXT/UTF8
Codec ID/Info : UTF-8 Plain Text
Duration : 2 h 28 min
Bit rate : 64 b/s
Count of elements : 1790
Stream size : 70.5 KiB (0%)
Language : English
Default : No
Forced : No

Menu
00:00:00.000 : en:Chapter 01
00:06:14.499 : en:Chapter 02
00:12:41.343 : en:Chapter 03
00:15:12.244 : en:Chapter 04
00:17:23.292 : en:Chapter 05
00:22:30.932 : en:Chapter 06
00:29:00.029 : en:Chapter 07
00:37:42.843 : en:Chapter 08
00:43:55.132 : en:Chapter 09
00:48:01.503 : en:Chapter 10
00:51:18.033 : en:Chapter 11
00:54:29.432 : en:Chapter 12
00:57:20.061 : en:Chapter 13
01:01:10.875 : en:Chapter 14
01:03:49.242 : en:Chapter 15
01:12:11.327 : en:Chapter 16
01:17:26.767 : en:Chapter 17
01:23:00.892 : en:Chapter 18
01:30:45.440 : en:Chapter 19
01:40:28.772 : en:Chapter 20
01:43:58.523 : en:Chapter 21
01:51:27.681 : en:Chapter 22
01:56:44.080 : en:Chapter 23
02:03:34.281 : en:Chapter 24
02:15:42.551 : en:Chapter 25
02:19:20.810 : en:Chapter 26
02:23:33.730 : en:Chapter 27
02:26:37.747 : en:Chapter 28
02:30:18.968 : en:Chapter 29
02:33:18.105 : en:Chapter 30
Скріншоти



Джерело:
Особиста оцінка: 0 - не дивився


Срібний реліз (на рейтинг впливає 50% завантаженого)
 Трекер:    Зареєстрований   

Завантажити / скачати фільм українською



відео для новачків



 Зареєстрований:   2018-06-19 14:33
 Розмір:   5.76 GB 
 Оцінка фільму:   8/10 (Голосів: 5)
   
Інші релізи
   Своя людина / The Insider (1999) Remux 1080p Ukr/Eng | Sub Eng staf777  1 / 0   33.83 GB   2019-02-20 19:25 
   Своя людина / The Insider (1999) AVC Ukr/Eng | Sub Eng drop_plz  3 / 0   3.96 GB   2019-01-20 12:53 
   Своя людина / The Insider (1999) 720p Ukr/Eng | sub Eng bodia87  0 / 0   4.33 GB   2013-10-18 17:28 
   Своя людина / The Insider (1999) Gelios  6 / 0   2.18 GB   2013-10-17 17:58 
Ваш часовий пояс: GMT + 2 Години

Нова тема   Відповісти