Пограбування по-італійськи / The Italian Job (2003) mini 1080p H.265 2xUkr/Eng | Sub Eng

Нові коментарі

Нова тема   Відповісти
Автор Повідомлення
ukr_anonymous 
Забанено
Забанено


З нами з: 17.04.18
Востаннє: 17.11.19
Повідомлень: 233

2018-06-18 23:04  
Пограбування по-італійськи / The Italian Job (2003) mini 1080p H.265 2xUkr/Eng | Sub Eng

Пограбування по-італійськи / The Italian Job (2003) mini 1080p H.265 2xUkr/Eng | Sub Eng


Жанр: бойовик, трилер, кримінальний
Країна: США, Франція, Велика Британія



Кінокомпанія: Paramount Pictures, De Line Pictures, Working Title Films
Режисер: Ф. Ґері Ґрей / F. Gary Gray
Актори: Марк Волберґ / Mark Wahlberg, Едвард Нортон / Edward Norton, Шарліз Терон / Charlize Theron, Джейсон Стейтем / Jason Statham, Сет Ґрін / Seth Green та інші

Сюжет:
Банда грабіжників під керівництвом Чарлі Крокера на повній швидкості мчить на мініатюрних БМВ по вулицях Лос-Анджелеса і навіть занирює в підземку. Банда прагне відвезти в безпечне місце здобич - сейф, набитий золотом. У Лос-Анджелесі з його жахливими пробками просто так не поїздиш, тому банда заздалегідь поклопоталася про «зелену вулицю» для себе: на всіх світлофорах по шляху їх проходження горить тільки зелене світло. Для інших, відповідно, горить червоний, що провокує грандіозну в історії Лос-Анджелеса дорожню пробку.


Тривалість: 01:50:31
Якість:
Відео:
кодек:
розмір кадру: 1920 х 804
бітрейт: 4 358 кб/с

Аудіо # 1:
мова: українська
переклад: двоголосий закадровий
кодек: 5.1
бітрейт: 448 кб/с

Аудіо # 2:
мова: українська
переклад: багатоголосий закадровий
кодек: 5.1
бітрейт: 384 кб/с

Аудіо # 3:
мова: англійська
переклад: оригінал
кодек: 5.1
бітрейт: 448 кб/с

Субтитри # 1:
мова: англійська
тип: програмні (м'які)
формат: *.srt
Info
General
Unique ID : 177058154279891815331420518464266049708 (0x853428FDCABD63F65EE0293894BE18AC)
Complete name : E:\video\The Italian Job (2003) 1080p H.265 [2xUKR_ENG].
Format :
Format version : Version 4 / Version 2
File size : 4.35 GiB
Duration : 1 h 50 min
Overall bit rate : 5 640 kb/s
Encoded date : UTC 2018-06-18 18:23:23
Writing application : v22.0.0 ('At The End Of The World') 64-bit
Writing library : libebml v1.3.5 + v1.4.8
Cover : Yes
Attachments : Cover.jpg

Video
ID : 1
Format : HEVC
Format/Info : High Efficiency Video Coding
Format profile : Main [email protected]@Main
Codec ID : V_MPEGH/ISO/HEVC
Duration : 1 h 50 min
Bit rate : 4 358 kb/s
Width : 1 920 pixels
Height : 804 pixels
Display aspect ratio : 2.40:1
Frame rate mode : Constant
Frame rate : 23.976 (24000/1001) FPS
Color space : YUV
Chroma subsampling : 4:2:0
Bit depth : 10 bits
Bits/(Pixel*Frame) : 0.118
Stream size : 3.36 GiB (77%)
Writing library : x265 2.8+1-478bfe2b7673:[Windows][GCC 7.3.0][64 bit] 10bit
Encoding settings : cpuid=1111039 / frame-threads=3 / numa-pools=8 / wpp / no-pmode / no-pme / no-psnr / no-ssim / log-level=2 / input-csp=1 / input-res=1920x804 / interlace=0 / total-frames=158965 / level-idc=0 / high-tier=1 / uhd-bd=0 / ref=4 / no-allow-non-conformance / no-repeat-headers / annexb / no-aud / no-hrd / info / hash=0 / no-temporal-layers / open-gop / min-keyint=23 / keyint=250 / gop-lookahead=0 / bframes=4 / b-adapt=2 / b-pyramid / bframe-bias=0 / rc-lookahead=25 / lookahead-slices=4 / scenecut=40 / radl=0 / no-intra-refresh / ctu=64 / min-cu-size=8 / rect / no-amp / max-tu-size=32 / tu-inter-depth=1 / tu-intra-depth=1 / limit-tu=0 / rdoq-level=2 / dynamic-rd=0.00 / no-ssim-rd / signhide / no-tskip / nr-intra=0 / nr-inter=0 / no-constrained-intra / strong-intra-smoothing / max-merge=3 / limit-refs=3 / limit-modes / me=3 / subme=3 / merange=57 / temporal-mvp / weightp / no-weightb / no-analyze-src-pics / deblock=0:0 / sao / no-sao-non-deblock / rd=4 / no-early-skip / rskip / no-fast-intra / no-tskip-fast / no-cu-lossless / no-b-intra / no-splitrd-skip / rdpenalty=0 / psy-rd=2.00 / psy-rdoq=1.00 / no-rd-refine / no-lossless / cbqpoffs=0 / crqpoffs=0 / rc=abr / bitrate=4359 / qcomp=0.60 / qpstep=4 / stats-write=0 / stats-read=2 / cplxblur=20.0 / qblur=0.5 / ipratio=1.40 / pbratio=1.30 / aq-mode=3 / aq-strength=1.00 / cutree / zone-count=0 / no-strict-cbr / qg-size=32 / no-rc-grain / qpmax=69 / qpmin=0 / no-const-vbv / sar=0 / overscan=0 / videoformat=5 / range=0 / colorprim=2 / transfer=2 / colormatrix=2 / chromaloc=0 / display-window=0 / max-cll=0,0 / min-luma=0 / max-luma=1023 / log2-max-poc-lsb=8 / vui-timing-info / vui-hrd-info / slices=1 / no-opt-qp-pps / no-opt-ref-list-length-pps / multi-pass-opt-rps / scenecut-bias=0.05 / no-opt-cu-delta-qp / aq-motion / no-hdr / no-hdr-opt / no-dhdr10-opt / no-idr-recovery-sei / analysis-reuse-level=5 / scale-factor=0 / refine-intra=0 / refine-inter=0 / refine-mv=0 / no-limit-sao / ctu-info=0 / no-lowpass-dct / refine-mv-type=0 / copy-pic=1 / max-ausize-factor=1.0 / no-dynamic-refine / no-single-sei
Default : Yes
Forced : No

Audio #1
ID : 2
Format : AC-3
Format/Info : Audio Coding 3
Codec ID : A_AC3
Duration : 1 h 50 min
Bit rate mode : Constant
Bit rate : 448 kb/s
Channel(s) : 6 channels
Channel positions : Front: L C R, Side: L R, LFE
Sampling rate : 48.0 kHz
Frame rate : 31.250 FPS (1536 SPF)
Bit depth : 16 bits
Compression mode : Lossy
Delay relative to video : 4 ms
Stream size : 354 MiB (8%)
Title : TTP
Language : Ukrainian
Service kind : Complete Main
Default : Yes
Forced : No

Audio #2
ID : 3
Format : AC-3
Format/Info : Audio Coding 3
Codec ID : A_AC3
Duration : 1 h 50 min
Bit rate mode : Constant
Bit rate : 384 kb/s
Channel(s) : 6 channels
Channel positions : Front: L C R, Side: L R, LFE
Sampling rate : 48.0 kHz
Frame rate : 31.250 FPS (1536 SPF)
Bit depth : 16 bits
Compression mode : Lossy
Delay relative to video : 4 ms
Stream size : 304 MiB (7%)
Title : 1+1
Language : Ukrainian
Service kind : Complete Main
Default : No
Forced : No

Audio #3
ID : 4
Format : AC-3
Format/Info : Audio Coding 3
Codec ID : A_AC3
Duration : 1 h 50 min
Bit rate mode : Constant
Bit rate : 448 kb/s
Channel(s) : 6 channels
Channel positions : Front: L C R, Side: L R, LFE
Sampling rate : 48.0 kHz
Frame rate : 31.250 FPS (1536 SPF)
Bit depth : 16 bits
Compression mode : Lossy
Delay relative to video : 4 ms
Stream size : 354 MiB (8%)
Title : Original
Language : English
Service kind : Complete Main
Default : No
Forced : No

Text
ID : 5
Format : UTF-8
Codec ID : S_TEXT/UTF8
Codec ID/Info : UTF-8 Plain Text
Duration : 1 h 43 min
Bit rate : 55 b/s
Count of elements : 1585
Stream size : 42.2 KiB (0%)
Language : English
Default : No
Forced : No

Menu
00:00:00.000 : en:Chapter 01
00:11:24.266 : en:Chapter 02
00:16:53.345 : en:Chapter 03
00:23:58.103 : en:Chapter 04
00:30:01.174 : en:Chapter 05
00:38:03.614 : en:Chapter 06
00:45:21.510 : en:Chapter 07
00:54:56.459 : en:Chapter 08
01:01:31.979 : en:Chapter 09
01:08:38.781 : en:Chapter 10
01:14:37.931 : en:Chapter 11
01:22:26.274 : en:Chapter 12
01:28:46.904 : en:Chapter 13
01:34:52.687 : en:Chapter 14
01:40:22.391 : en:Chapter 15
01:44:50.284 : en:Chapter 16
Скріншоти



Джерело:
Особиста оцінка: 10 - без зайвих вагань рекомендую всім!


Срібний реліз (на рейтинг впливає 50% завантаженого)
 Трекер:    Зареєстрований   

Завантажити / скачати фільм українською



відео для новачків



 Зареєстрований:   2018-06-18 23:04
 Розмір:   4.35 GB 
 Оцінка фільму:   8.1/10 (Голосів: 7)
   
Ваш часовий пояс: GMT + 2 Години

Нова тема   Відповісти