Пагорби мають очі 2 / The Hills Have Eyes II [Unrated] (2007) AVC Ukr/Eng | Sub Eng

Нові коментарі

Нова тема   Відповісти
Автор Повідомлення
staf777 
Попереджень: 1
Попереджень: 1 


З нами з: 16.11.16
Востаннє: 17.11.18
Повідомлень: 1755

2018-06-18 21:17  
Пагорби мають очі 2 / The Hills Have Eyes II [Unrated] (2007) AVC Ukr/Eng | Sub Eng

Пагорби мають очі 2 / The Hills Have Eyes II [Unrated] (2007) AVC Ukr/Eng | Sub Eng
Український постер



Жанр: жахи, трилер
Країна: США, Франція



Кінокомпанія: Fox Atomic, Craven-Maddalena Films, Dune Entertainment
Режисер: Мартін Веіз / Martin Weisz
Актори: Майкл МакМілліан / Michael McMillian, Джессіка Строуп / Jessica Stroup, Джейкоб Варґас / Jacob Vargas, Даніела Алонсо / Daniella Alonso та інші

Сюжет:
Під час навчань солдати Національної гвардії США роблять привал на прикордонній заставі в Нью-Мексико і несподівано виявляють, що там нікого немає. Отримавши сигнал тривоги з віддаленого пагорба, група військових вирушає в той район, щоб допомогти людям у біді. Рятувальники не знають, що це місце колись відвідала сумно відома сім'я Картерів і що їх чекають кровожерні мутанти-канібали…


Тривалість: 01:29:57
Якість: AVC
Відео:
кодек:
розмір кадру: 1024x436
бітрейт: 2228 кб/с

Аудіо # 1:
мова: українська
переклад: двоголосий закадровий
кодек: 5.1
бітрейт: 448 кб/с

Аудіо # 2:
мова: англійська
переклад: оригінал
кодек: 5.1
бітрейт: 448 кб/с

Джерело озвучення:


Субтитри:
мова: англійська
тип: програмні (м'які)
формат: *.srt
Info
General
Unique ID : 194738402558094622426809884964227499185 (0x928140885F52CD2281ECE29C44DDC4B1)
Complete name : S:\Фільми в HD\The Hills Have Eyes II [Unrated](2007) AVC[Ukr][Eng][Sub Eng][Hurtom].
Format :
Format version : Version 4 / Version 2
File size : 1.97 GiB
Duration : 1 h 29 min
Overall bit rate : 3 127 kb/s
Movie name : The Hills Have Eyes II [Unrated](2007) AVC[Ukr][Eng][Sub Eng][Hurtom]
Encoded date : UTC 2018-06-19 05:21:33
Writing application : v9.8.0 ('Kuglblids') 64bit
Writing library : libebml v1.3.4 + v1.4.5
Cover : Yes
Attachments : cover.jpeg

Video
ID : 1
Format : AVC
Format/Info : Advanced Video Codec
Format profile : [email protected]
Format settings : CABAC / 9 Ref Frames
Format settings, CABAC : Yes
Format settings, ReFrames : 9 frames
Codec ID : V_MPEG4/ISO/AVC
Duration : 1 h 29 min
Bit rate : 2 228 kb/s
Width : 1 024 pixels
Height : 436 pixels
Display aspect ratio : 2.35:1
Frame rate mode : Constant
Frame rate : 23.976 (24000/1001) FPS
Color space : YUV
Chroma subsampling : 4:2:0
Bit depth : 8 bits
Scan type : Progressive
Bits/(Pixel*Frame) : 0.208
Stream size : 1.40 GiB (71%)
Writing library : core 146 r2538 121396c
Encoding settings : cabac=1 / ref=9 / deblock=1:-1:-1 / analyse=0x3:0x113 / me=umh / subme=10 / psy=1 / psy_rd=1.00:0.15 / mixed_ref=1 / me_range=32 / chroma_me=1 / trellis=2 / 8x8dct=1 / cqm=0 / deadzone=21,11 / fast_pskip=1 / chroma_qp_offset=-3 / threads=6 / lookahead_threads=1 / sliced_threads=0 / nr=0 / decimate=1 / interlaced=0 / bluray_compat=0 / constrained_intra=0 / bframes=8 / b_pyramid=2 / b_adapt=2 / b_bias=0 / direct=3 / weightb=1 / open_gop=0 / weightp=2 / keyint=230 / keyint_min=23 / scenecut=40 / intra_refresh=0 / rc_lookahead=40 / rc=crf / mbtree=0 / crf=18.0 / qcomp=0.60 / qpmin=0 / qpmax=69 / qpstep=4 / vbv_maxrate=40000 / vbv_bufsize=50000 / crf_max=0.0 / nal_hrd=none / filler=0 / ip_ratio=1.40 / pb_ratio=1.30 / aq=1:1.00
Language : English
Default : Yes
Forced : No

Audio #1
ID : 2
Format : AC-3
Format/Info : Audio Coding 3
Codec ID : A_AC3
Duration : 1 h 29 min
Bit rate mode : Constant
Bit rate : 448 kb/s
Channel(s) : 6 channels
Channel positions : Front: L C R, Side: L R, LFE
Sampling rate : 48.0 kHz
Frame rate : 31.250 FPS (1536 SPF)
Bit depth : 16 bits
Compression mode : Lossy
Stream size : 288 MiB (14%)
Title : [UA-DVO]
Language : Ukrainian
Service kind : Complete Main
Default : Yes
Forced : Yes

Audio #2
ID : 3
Format : AC-3
Format/Info : Audio Coding 3
Codec ID : A_AC3
Duration : 1 h 29 min
Bit rate mode : Constant
Bit rate : 448 kb/s
Channel(s) : 6 channels
Channel positions : Front: L C R, Side: L R, LFE
Sampling rate : 48.0 kHz
Frame rate : 31.250 FPS (1536 SPF)
Bit depth : 16 bits
Compression mode : Lossy
Stream size : 288 MiB (14%)
Title : Original
Language : English
Service kind : Complete Main
Default : No
Forced : No

Text
ID : 4
Format : UTF-8
Codec ID : S_TEXT/UTF8
Codec ID/Info : UTF-8 Plain Text
Duration : 1 h 22 min
Bit rate : 44 b/s
Count of elements : 894
Stream size : 26.9 KiB (0%)
Title : английские
Language : English
Default : No
Forced : No
Скріншоти




Джерело: &
Особиста оцінка: 8 - мені сподобалося



 Трекер:    Зареєстрований   

Завантажити / скачати фільм українською



відео для новачків



 Зареєстрований:   2018-06-19 07:53
 Розмір:   1.97 GB 
 Оцінка фільму:   8.5/10 (Голосів: 11)
   
andbublik 
Новенький


З нами з: 18.04.11
Востаннє: 16.11.18
Повідомлень: 7

2018-06-19 20:21  
Колись переглядав і був вражений жорстокість!).
Ваш часовий пояс: GMT + 2 Години

Нова тема   Відповісти