Пагорби мають очі / The Hills Have Eyes [Unrated] (2006) AVC Ukr/Eng | Sub Eng

Нові коментарі

Нова тема   Відповісти
Автор Повідомлення
staf777 
Відео Гуртом - підтримка та поширення
Відео Гуртом - підтримка та поширення


З нами з: 16.11.16
Востаннє: 20.11.19
Повідомлень: 3033

2018-06-18 20:53  
Пагорби мають очі / The Hills Have Eyes [Unrated] (2006) AVC Ukr/Eng | Sub Eng

Пагорби мають очі / The Hills Have Eyes [Unrated] (2006) AVC Ukr/Eng | Sub Eng
Українські постери





повнорозмірні скріншоти відкриваються по кліку (з натиснутим CTRL чи середньою кнопкою - у іншій вкладці)


Жанр: жахи, трилер
Країна: США, Франція



Кінокомпанія: Craven-Maddalena Films, Dune Entertainment, Major Studio Partners
Режисер: Александр Ажа / Alexandre Aja
Актори: Аарон Стенфорд / Aaron Stanford, Кетлін Квінлен / Kathleen Quinlan, Вінесса Шоу / Vinessa Shaw, Емілі де Равін / Emilie de Ravin та інші

Сюжет:
Подорожуючи Америкою в хатинці на колесах, сімейство Картерів потрапляє в аварію та опиняється у таємничій ядерній зоні, відрізаній від цивілізації. Проте з часом Картери виявляють, що на цій начебто пустельній території мешкає кровожерна сімейка мутантів, які починають полювання на них…


Тривалість: 01:48:24
Якість: AVC
Відео:
кодек:
розмір кадру: 1024x436
бітрейт: 3500 кб/с

Аудіо # 1:
мова: українська
переклад: двоголосий закадровий
кодек: 5.1
бітрейт: 448 кб/с

Аудіо # 2:
мова: англійська
переклад: оригінал
кодек: 5.1
бітрейт: 448 кб/с

Джерело озвучення:


Субтитри:
мова: англійська
тип: програмні (м'які)
формат: *.srt
Info
General
Unique ID : 198105056032743214250665496735914965416 (0x9509A55D4B28670B99EA369E37CCB9A8)
Complete name : H:\» Українське озвучення » Фільми\The Hills Have Eyes [Unrated] (2006) AVC [Ukr][Eng][Sub Eng][Hurtom].
Format :
Format version : Version 4 / Version 2
File size : 3.33 GiB
Duration : 1 h 48 min
Overall bit rate : 4 396 kb/s
Movie name : The Hills Have Eyes [Unrated] (2006) AVC [Ukr][Eng][Sub Eng][Hurtom]
Encoded date : UTC 2018-06-19 14:15:25
Writing application : v9.8.0 ('Kuglblids') 64bit
Writing library : libebml v1.3.4 + v1.4.5
Cover : Yes
Attachments : cover.jpg

Video
ID : 1
Format : AVC
Format/Info : Advanced Video Codec
Format profile : [email protected]
Format settings : CABAC / 8 Ref Frames
Format settings, CABAC : Yes
Format settings, ReFrames : 8 frames
Codec ID : V_MPEG4/ISO/AVC
Duration : 1 h 48 min
Bit rate : 3 500 kb/s
Width : 1 024 pixels
Height : 436 pixels
Display aspect ratio : 2.35:1
Frame rate mode : Constant
Frame rate : 23.976 (24000/1001) FPS
Color space : YUV
Chroma subsampling : 4:2:0
Bit depth : 8 bits
Scan type : Progressive
Bits/(Pixel*Frame) : 0.327
Stream size : 2.65 GiB (80%)
Title : Rip by DenisNN
Writing library : core 116 r2074 2641b9e
Encoding settings : cabac=1 / ref=8 / deblock=1:1:1 / analyse=0x3:0x133 / me=umh / subme=10 / psy=1 / psy_rd=1.00:0.00 / mixed_ref=1 / me_range=32 / chroma_me=1 / trellis=2 / 8x8dct=1 / cqm=0 / deadzone=21,11 / fast_pskip=0 / chroma_qp_offset=3 / threads=3 / sliced_threads=0 / nr=0 / decimate=1 / interlaced=0 / bluray_compat=0 / constrained_intra=0 / bframes=7 / b_pyramid=2 / b_adapt=2 / b_bias=0 / direct=3 / weightb=1 / open_gop=0 / weightp=2 / keyint=250 / keyint_min=23 / scenecut=40 / intra_refresh=0 / rc=2pass / mbtree=0 / bitrate=3500 / ratetol=1.0 / qcomp=0.60 / qpmin=10 / qpmax=51 / qpstep=4 / cplxblur=20.0 / qblur=0.5 / ip_ratio=1.40 / pb_ratio=1.30 / aq=2:1.00
Language : English
Default : Yes
Forced : No

Audio #1
ID : 2
Format : AC-3
Format/Info : Audio Coding 3
Codec ID : A_AC3
Duration : 1 h 48 min
Bit rate mode : Constant
Bit rate : 448 kb/s
Channel(s) : 6 channels
Channel positions : Front: L C R, Side: L R, LFE
Sampling rate : 48.0 kHz
Frame rate : 31.250 FPS (1536 SPF)
Bit depth : 16 bits
Compression mode : Lossy
Stream size : 347 MiB (10%)
Title : [UA-DVO]
Language : Ukrainian
Service kind : Complete Main
Default : Yes
Forced : Yes

Audio #2
ID : 3
Format : AC-3
Format/Info : Audio Coding 3
Codec ID : A_AC3
Duration : 1 h 48 min
Bit rate mode : Constant
Bit rate : 448 kb/s
Channel(s) : 6 channels
Channel positions : Front: L C R, Side: L R, LFE
Sampling rate : 48.0 kHz
Frame rate : 31.250 FPS (1536 SPF)
Bit depth : 16 bits
Compression mode : Lossy
Stream size : 347 MiB (10%)
Title : Английский
Language : English
Service kind : Complete Main
Default : No
Forced : No

Text
ID : 4
Format : UTF-8
Codec ID : S_TEXT/UTF8
Codec ID/Info : UTF-8 Plain Text
Duration : 1 h 41 min
Bit rate : 29 b/s
Count of elements : 737
Stream size : 22.0 KiB (0%)
Language : English
Default : No
Forced : No

Menu
00:00:00.000 : :Chapter 01
00:02:25.019 : :Chapter 02
00:04:41.072 : :Chapter 03
00:08:50.279 : :Chapter 04
00:16:44.461 : :Chapter 05
00:19:34.381 : :Chapter 06
00:25:36.326 : :Chapter 07
00:28:24.661 : :Chapter 08
00:34:25.228 : :Chapter 09
00:37:43.052 : :Chapter 10
00:43:47.958 : :Chapter 11
00:49:33.094 : :Chapter 12
01:00:01.639 : :Chapter 13
01:02:44.760 : :Chapter 14
01:07:55.696 : :Chapter 15
01:13:32.032 : :Chapter 16
01:16:47.060 : :Chapter 17
01:20:27.405 : :Chapter 18
01:24:34.402 : :Chapter 19
01:28:06.238 : :Chapter 20
01:32:55.695 : :Chapter 21
01:37:38.519 : :Chapter 22
01:42:05.285 : :Chapter 23
01:44:18.043 : :Chapter 24
Скріншоти




Джерело: &
Особиста оцінка: 8 - мені сподобалося



 Трекер:    Зареєстрований   

Завантажити / скачати фільм українською



відео для новачків



 Зареєстрований:   2018-06-19 17:20
 Розмір:   3.33 GB 
 Оцінка фільму:   10/10 (Голосів: 6)
   
Space707 
Попереджень: 1
Попереджень: 1 


З нами з: 20.01.15
Востаннє: 11.11.19
Повідомлень: 104

2018-06-19 00:49  
Шедевральна обкладинка.
bot 
робот


З нами з: 30.09.07
Востаннє: 26.05.05
Повідомлень: 22490

2018-06-19 17:20  
Тему перенесено з Анонси релізів до форуму Фільми


staf777

Ваш часовий пояс: GMT + 2 Години

Нова тема   Відповісти