Втеча з Шоушенка / The Shawshank Redemption (1994) mini 1080p H.265 3хUkr/Eng | Sub Ukr/Eng

Нові коментарі

Нова тема   Відповісти
Автор Повідомлення
ukr_anonymous 
Попереджень: 1
Попереджень: 1 


З нами з: 16.04.18
Востаннє: 08.09.19
Повідомлень: 234

2018-06-18 20:07  
Втеча з Шоушенка / The Shawshank Redemption (1994) mini 1080p H.265 3хUkr/Eng | Sub Ukr/Eng

Втеча з Шоушенка / The Shawshank Redemption (1994) mini 1080p H.265 3хUkr/Eng | Sub Ukr/Eng


Жанр: кримінальний, драма
Країна: США



Кінокомпанія: Castle Rock Entertainment
Режисер: Френк Дарабонт / Frank Darabont
Актори: Тім Робінс / Tim Robbins, Морґан Фрімен / Morgan Freeman, Боб Ґантон / Bob Gunton, Вільям Седлер / William Sadler, Кленсі Браун / Clancy Brown, Джил Белловс / Gil Bellows, Марк Ролстон / Mark Rolston, Джеймс Вітмор / James Whitmore, Джеффрі ДеМанн / Jeffrey DeMunn, Ларрі Бранденбурґ / Larry Brandenburg

Сюжет:
Енді Дюфрейн, віце-президент солідного банку, засуджується до двох довічних ув'язнень за обвинуваченням у вбивстві дружини і її коханця. Він відбуває ув'язнення в тюрмі Шоушенка, де проходить усі кола пекла, проявляючи незвичайну мужність, завзятість і холоднокровність.


Тривалість: 02:22:33
Якість:
Відео:
кодек: H.265 (HEVC)
розмір кадру: 1920 х 1080
бітрейт: 4 750 кб/с
бітова глибина: 10 біт
Увага! Перед завантаженням переконайтесь, що ваш пристрій відтворення (та/або ПЗ) підтримує H.265 (HEVC)

Аудіо # 1:
мова: українська
переклад: багатоголосий закадровий
кодек: 5.1
бітрейт: 384 кб/с

Аудіо # 2:
мова: українська
переклад: двоголосий закадровий
кодек: 5.1
бітрейт: 384 кб/с

Аудіо # 3:
мова: українська
переклад: багатоголосий закадровий
кодек: 2.0
бітрейт: 192 кб/с

Аудіо # 4:
мова: англійська
переклад: оригінал
кодек: 5.1
бітрейт: 384 кб/с

Субтитри # 1:
мова: українська
тип: програмні (м'які)
формат: *.srt

Субтитри # 2:
мова: англійська
тип: програмні (м'які)
формат: *.srt
Info
General
Unique ID : 170138818247604775005326228724903870041 (0x7FFF8B62D10DF5DBB7A1C8C36EC07E59)
Complete name : E:\video\The Shawshank Redemption (1994) 1080p H.265 [3xUKR_ENG].
Format :
Format version : Version 4 / Version 2
File size : 6.07 GiB
Duration : 2 h 22 min
Overall bit rate : 6 097 kb/s
Encoded date : UTC 2018-06-16 19:33:29
Writing application : v22.0.0 ('At The End Of The World') 64-bit
Writing library : libebml v1.3.5 + v1.4.8
Cover : Yes
Attachments : Cover.jpg

Video
ID : 1
Format : HEVC
Format/Info : High Efficiency Video Coding
Format profile : Main [email protected]@Main
Codec ID : V_MPEGH/ISO/HEVC
Duration : 2 h 22 min
Bit rate : 4 750 kb/s
Width : 1 920 pixels
Height : 1 080 pixels
Display aspect ratio : 16:9
Frame rate mode : Constant
Frame rate : 23.976 (24000/1001) FPS
Color space : YUV
Chroma subsampling : 4:2:0
Bit depth : 10 bits
Bits/(Pixel*Frame) : 0.096
Stream size : 4.73 GiB (78%)
Writing library : x265 2.8+1-478bfe2b7673:[Windows][GCC 7.3.0][64 bit] 10bit
Encoding settings : cpuid=1111039 / frame-threads=3 / numa-pools=8 / wpp / no-pmode / no-pme / no-psnr / no-ssim / log-level=2 / input-csp=1 / input-res=1920x1080 / interlace=0 / total-frames=205076 / level-idc=0 / high-tier=1 / uhd-bd=0 / ref=4 / no-allow-non-conformance / no-repeat-headers / annexb / no-aud / no-hrd / info / hash=0 / no-temporal-layers / open-gop / min-keyint=23 / keyint=250 / gop-lookahead=0 / bframes=4 / b-adapt=2 / b-pyramid / bframe-bias=0 / rc-lookahead=25 / lookahead-slices=4 / scenecut=40 / radl=0 / no-intra-refresh / ctu=64 / min-cu-size=8 / rect / no-amp / max-tu-size=32 / tu-inter-depth=1 / tu-intra-depth=1 / limit-tu=0 / rdoq-level=2 / dynamic-rd=0.00 / no-ssim-rd / signhide / no-tskip / nr-intra=0 / nr-inter=0 / no-constrained-intra / strong-intra-smoothing / max-merge=3 / limit-refs=3 / limit-modes / me=3 / subme=3 / merange=57 / temporal-mvp / weightp / no-weightb / no-analyze-src-pics / deblock=0:0 / sao / no-sao-non-deblock / rd=4 / no-early-skip / rskip / no-fast-intra / no-tskip-fast / no-cu-lossless / no-b-intra / no-splitrd-skip / rdpenalty=0 / psy-rd=2.00 / psy-rdoq=1.00 / no-rd-refine / no-lossless / cbqpoffs=0 / crqpoffs=0 / rc=abr / bitrate=4750 / qcomp=0.60 / qpstep=4 / stats-write=0 / stats-read=2 / cplxblur=20.0 / qblur=0.5 / ipratio=1.40 / pbratio=1.30 / aq-mode=3 / aq-strength=1.00 / cutree / zone-count=0 / no-strict-cbr / qg-size=32 / no-rc-grain / qpmax=69 / qpmin=0 / no-const-vbv / sar=0 / overscan=0 / videoformat=5 / range=0 / colorprim=2 / transfer=2 / colormatrix=2 / chromaloc=0 / display-window=0 / max-cll=0,0 / min-luma=0 / max-luma=1023 / log2-max-poc-lsb=8 / vui-timing-info / vui-hrd-info / slices=1 / no-opt-qp-pps / no-opt-ref-list-length-pps / multi-pass-opt-rps / scenecut-bias=0.05 / no-opt-cu-delta-qp / aq-motion / no-hdr / no-hdr-opt / no-dhdr10-opt / no-idr-recovery-sei / analysis-reuse-level=5 / scale-factor=0 / refine-intra=0 / refine-inter=0 / refine-mv=0 / no-limit-sao / ctu-info=0 / no-lowpass-dct / refine-mv-type=0 / copy-pic=1 / max-ausize-factor=1.0 / no-dynamic-refine / no-single-sei
Default : Yes
Forced : No

Audio #1
ID : 2
Format : AC-3
Format/Info : Audio Coding 3
Codec ID : A_AC3
Duration : 2 h 22 min
Bit rate mode : Constant
Bit rate : 384 kb/s
Channel(s) : 6 channels
Channel positions : Front: L C R, Side: L R, LFE
Sampling rate : 48.0 kHz
Frame rate : 31.250 FPS (1536 SPF)
Bit depth : 16 bits
Compression mode : Lossy
Delay relative to video : 1 s 0 ms
Stream size : 391 MiB (6%)
Title : ICTV
Language : Ukrainian
Service kind : Complete Main
Default : Yes
Forced : No

Audio #2
ID : 3
Format : AC-3
Format/Info : Audio Coding 3
Codec ID : A_AC3
Duration : 2 h 22 min
Bit rate mode : Constant
Bit rate : 384 kb/s
Channel(s) : 6 channels
Channel positions : Front: L C R, Side: L R, LFE
Sampling rate : 48.0 kHz
Frame rate : 31.250 FPS (1536 SPF)
Bit depth : 16 bits
Compression mode : Lossy
Delay relative to video : 1 s 0 ms
Stream size : 391 MiB (6%)
Title : СТБ
Language : Ukrainian
Service kind : Complete Main
Default : No
Forced : No

Audio #3
ID : 4
Format : AC-3
Format/Info : Audio Coding 3
Codec ID : A_AC3
Duration : 2 h 22 min
Bit rate mode : Constant
Bit rate : 192 kb/s
Channel(s) : 2 channels
Channel positions : Front: L R
Sampling rate : 48.0 kHz
Frame rate : 31.250 FPS (1536 SPF)
Bit depth : 16 bits
Compression mode : Lossy
Stream size : 196 MiB (3%)
Title : 1+1
Language : Ukrainian
Service kind : Complete Main
Default : No
Forced : No

Audio #4
ID : 5
Format : AC-3
Format/Info : Audio Coding 3
Codec ID : A_AC3
Duration : 2 h 22 min
Bit rate mode : Constant
Bit rate : 384 kb/s
Channel(s) : 6 channels
Channel positions : Front: L C R, Side: L R, LFE
Sampling rate : 48.0 kHz
Frame rate : 31.250 FPS (1536 SPF)
Bit depth : 16 bits
Compression mode : Lossy
Stream size : 392 MiB (6%)
Title : Original
Language : English
Service kind : Complete Main
Default : No
Forced : No

Text #1
ID : 6
Format : UTF-8
Codec ID : S_TEXT/UTF8
Codec ID/Info : UTF-8 Plain Text
Duration : 2 h 16 min
Bit rate : 89 b/s
Count of elements : 1249
Stream size : 89.3 KiB (0%)
Language : Ukrainian
Default : Yes
Forced : No

Text #2
ID : 7
Format : UTF-8
Codec ID : S_TEXT/UTF8
Codec ID/Info : UTF-8 Plain Text
Duration : 2 h 17 min
Bit rate : 59 b/s
Count of elements : 1796
Stream size : 60.2 KiB (0%)
Language : English
Default : No
Forced : No

Menu
00:00:00.000 : en:Chapter 01
00:04:40.822 : en:Chapter 02
00:06:40.775 : en:Chapter 03
00:10:08.065 : en:Chapter 04
00:13:47.076 : en:Chapter 05
00:18:00.913 : en:Chapter 06
00:23:44.214 : en:Chapter 07
00:29:01.865 : en:Chapter 08
00:33:33.553 : en:Chapter 09
00:38:51.912 : en:Chapter 10
00:41:07.256 : en:Chapter 11
00:42:41.642 : en:Chapter 12
00:46:15.314 : en:Chapter 13
00:48:15.058 : en:Chapter 14
00:51:22.245 : en:Chapter 15
00:57:19.853 : en:Chapter 16
01:00:28.082 : en:Chapter 17
01:05:46.651 : en:Chapter 18
01:07:17.283 : en:Chapter 19
01:11:04.677 : en:Chapter 20
01:13:53.971 : en:Chapter 21
01:15:56.218 : en:Chapter 22
01:21:08.905 : en:Chapter 23
01:23:59.701 : en:Chapter 24
01:29:26.903 : en:Chapter 25
01:32:11.317 : en:Chapter 26
01:35:38.149 : en:Chapter 27
01:38:29.778 : en:Chapter 28
01:40:39.366 : en:Chapter 29
01:47:23.979 : en:Chapter 30
01:50:46.640 : en:Chapter 31
01:54:31.990 : en:Chapter 32
02:00:36.229 : en:Chapter 33
02:04:10.192 : en:Chapter 34
02:05:51.293 : en:Chapter 35
02:08:26.657 : en:Chapter 36
02:10:14.223 : en:Chapter 37
02:12:56.802 : en:Chapter 38
02:16:28.471 : en:Chapter 39
02:18:08.530 : en:Chapter 40
Скріншоти



Джерело:
Особиста оцінка: 0 - не дивився


Срібний реліз (на рейтинг впливає 50% завантаженого)
 Трекер:    Зареєстрований   

Завантажити / скачати фільм українською



відео для новачків



 Зареєстрований:   2018-06-18 20:07
 Розмір:   6.07 GB 
 Оцінка фільму:   9.6/10 (Голосів: 20)
   
virtus8hur 
Попереджень: 1
Попереджень: 1 


З нами з: 06.02.10
Востаннє: 13.11.19
Повідомлень: 3839

2018-06-19 02:09  
Фільм займає 1 місце в рейтингу IMDB https://www.imdb.com/chart/top?ref_=nv_wl_img_3
11FrYkT 
Модератор відео


З нами з: 20.02.11
Востаннє: 13.11.19
Повідомлень: 6318

2018-06-20 09:00  
ukr_anonymous , не забувайте вказувати що міні, я вже задовбався виправляти
ukr_anonymous 
Попереджень: 1
Попереджень: 1 


З нами з: 16.04.18
Востаннє: 08.09.19
Повідомлень: 234

2018-06-20 20:36  
11FrYkT написано:
не забувайте вказувати що міні, я вже задовбався виправляти

а для чого це взагалі?
тобто, якщо Bits/(Pixel*Frame) менше за 0,120 - це міні?

Ваш часовий пояс: GMT + 2 Години

Нова тема   Відповісти