Дев'ять / Дев’ять / 9 (2009) 1080p H.265 2xUkr/Eng | Sub Ukr/Eng

Нові коментарі

Нова тема   Відповісти
Автор Повідомлення
ukr_anonymous 
Забанено
Забанено


З нами з: 16.04.18
Востаннє: 17.11.19
Повідомлень: 233

2018-06-18 19:51  
Дев'ять / Дев’ять / 9 (2009) 1080p H.265 2xUkr/Eng | Sub Ukr/Eng

Дев'ять / Дев’ять / 9 (2009) 1080p H.265 2xUkr/Eng | Sub Ukr/Eng


Жанр: анімація, пригодницький, драма, фентезі, фантастика
Країна: США



Кінокомпанія: Focus Features, Relativity Media, Arc Productions
Режисер: Шейн Акер / Shane Acker
Актори: Крістофер Пламмер / Christopher Plummer, Мартін Ландау / Martin Landau, Джон К. Рейлі / John C. Reilly, Кріспін Ґловер / Crispin Glover, Дженіфер Конеллі / Jennifer Connelly, Елайджа Вуд / Elijah Wood, Алан Оппенгеймер / Alan Oppenheimer, Том Кейн / Tom Kane та інші.

Сюжет:
Дія картини відбувається в зруйнованому недавньою війною світі, де до того ж геть відсутні люди, зате присутня велика кількість різних бойових машин. Агресивним механізмам протистоять дев’ять ляльок, кожна з своїм характером і набором талантів, на яких покладена місія по відродженню людства.
Треба також додати, що за спиною Шейна Акера, режисера «Дев’яти», стоять такі відомі особи як Тім Бартон і Тімур Бекмабетов, які виступили тут в якості продюсерів...


Тривалість: 01:19:24
Якість:
Відео:
кодек: H.265 (HEVC)
розмір кадру: 1920 х 1080
бітрейт: 3 145 кб/с
бітова глибина: 10 біт
Увага! Перед завантаженням переконайтесь, що ваш пристрій відтворення (та/або ПЗ) підтримує H.265 (HEVC)

Аудіо # 1:
мова: українська
переклад: професійний дубльований
кодек: 5.1
бітрейт: 384 кб/с

Аудіо # 2:
мова: українська
переклад: багатоголосий закадровий
кодек: 2.0
бітрейт: 192 кб/с

Аудіо # 3:
мова: англійська
переклад: оригінал
кодек: 5.1
бітрейт: 448 кб/с

Субтитри # 1:
мова: українська
тип: програмні (м'які)
формат: *.srt

Субтитри # 2:
мова: англійська
тип: програмні (м'які)
формат: *.srt
Info
General
Unique ID : 11381251770993788894305274242919442804 (0x88FF309319EDF93DAB9AEF05D022974)
Complete name : E:\video\9 (2009) 1080p H.265 [2xUKR_ENG].
Format :
Format version : Version 4 / Version 2
File size : 2.31 GiB
Duration : 1 h 19 min
Overall bit rate : 4 171 kb/s
Movie name : 9
Encoded date : UTC 2018-06-18 15:43:08
Writing application : v22.0.0 ('At The End Of The World') 64-bit
Writing library : libebml v1.3.5 + v1.4.8
Cover : Yes
Attachments : Cover.jpg

Video
ID : 1
Format : HEVC
Format/Info : High Efficiency Video Coding
Format profile : Main [email protected]@Main
Codec ID : V_MPEGH/ISO/HEVC
Duration : 1 h 19 min
Bit rate : 3 145 kb/s
Width : 1 920 pixels
Height : 1 080 pixels
Display aspect ratio : 16:9
Frame rate mode : Constant
Frame rate : 23.976 (24000/1001) FPS
Color space : YUV
Chroma subsampling : 4:2:0
Bit depth : 10 bits
Bits/(Pixel*Frame) : 0.063
Stream size : 1.74 GiB (75%)
Writing library : x265 2.1+69-c97c64ab8b8e:[Windows][GCC 6.2.0][64 bit] 10bit
Encoding settings : cpuid=1173503 / frame-threads=2 / numa-pools=4 / wpp / no-pmode / no-pme / no-psnr / no-ssim / log-level=2 / input-csp=1 / input-res=1920x1080 / interlace=0 / total-frames=114228 / level-idc=0 / high-tier=1 / uhd-bd=0 / ref=4 / no-allow-non-conformance / no-repeat-headers / annexb / no-aud / no-hrd / info / hash=0 / no-temporal-layers / open-gop / min-keyint=23 / keyint=250 / bframes=4 / b-adapt=2 / b-pyramid / bframe-bias=0 / rc-lookahead=25 / lookahead-slices=4 / scenecut=40 / no-intra-refresh / ctu=64 / min-cu-size=8 / rect / no-amp / max-tu-size=32 / tu-inter-depth=1 / tu-intra-depth=1 / limit-tu=0 / rdoq-level=2 / signhide / no-tskip / nr-intra=0 / nr-inter=0 / no-constrained-intra / strong-intra-smoothing / max-merge=3 / limit-refs=3 / limit-modes / me=3 / subme=3 / merange=57 / temporal-mvp / weightp / no-weightb / no-analyze-src-pics / deblock=0:0 / sao / no-sao-non-deblock / rd=4 / no-early-skip / rskip / no-fast-intra / no-tskip-fast / no-cu-lossless / no-b-intra / rdpenalty=0 / psy-rd=2.00 / psy-rdoq=1.00 / no-rd-refine / analysis-mode=0 / no-lossless / cbqpoffs=0 / crqpoffs=0 / rc=crf / crf=18.0 / qcomp=0.60 / qpstep=4 / stats-write=0 / stats-read=0 / ipratio=1.40 / pbratio=1.30 / aq-mode=1 / aq-strength=1.00 / cutree / zone-count=0 / no-strict-cbr / qg-size=32 / no-rc-grain / qpmax=69 / qpmin=0 / sar=0 / overscan=0 / videoformat=5 / range=0 / colorprim=2 / transfer=2 / colormatrix=2 / chromaloc=0 / display-window=0 / max-cll=0,0 / min-luma=0 / max-luma=1023 / log2-max-poc-lsb=8 / vui-timing-info / vui-hrd-info / slices=1 / opt-qp-pps / opt-ref-list-length-pps / no-multi-pass-opt-rps / scenecut-bias=0.05
Default : Yes
Forced : No

Audio #1
ID : 2
Format : AC-3
Format/Info : Audio Coding 3
Codec ID : A_AC3
Duration : 1 h 19 min
Bit rate mode : Constant
Bit rate : 384 kb/s
Channel(s) : 6 channels
Channel positions : Front: L C R, Side: L R, LFE
Sampling rate : 48.0 kHz
Frame rate : 31.250 FPS (1536 SPF)
Bit depth : 16 bits
Compression mode : Lossy
Delay relative to video : 866 ms
Stream size : 218 MiB (9%)
Title : 5.1 @ 384 kbps
Language : Ukrainian
Service kind : Complete Main
Default : Yes
Forced : Yes

Audio #2
ID : 3
Format : AC-3
Format/Info : Audio Coding 3
Codec ID : A_AC3
Duration : 1 h 19 min
Bit rate mode : Constant
Bit rate : 192 kb/s
Channel(s) : 2 channels
Channel positions : Front: L R
Sampling rate : 48.0 kHz
Frame rate : 31.250 FPS (1536 SPF)
Bit depth : 16 bits
Compression mode : Lossy
Stream size : 109 MiB (5%)
Title : 2.0 @ 192 kbps
Language : Ukrainian
Service kind : Complete Main
Default : No
Forced : No

Audio #3
ID : 4
Format : AC-3
Format/Info : Audio Coding 3
Codec ID : A_AC3
Duration : 1 h 19 min
Bit rate mode : Constant
Bit rate : 448 kb/s
Channel(s) : 6 channels
Channel positions : Front: L C R, Side: L R, LFE
Sampling rate : 48.0 kHz
Frame rate : 31.250 FPS (1536 SPF)
Bit depth : 16 bits
Compression mode : Lossy
Stream size : 254 MiB (11%)
Title : 5.1 @ 448 kbps
Language : English
Service kind : Complete Main
Default : No
Forced : No

Text #1
ID : 5
Format : UTF-8
Codec ID : S_TEXT/UTF8
Codec ID/Info : UTF-8 Plain Text
Duration : 1 h 11 min
Bit rate : 44 b/s
Count of elements : 440
Stream size : 23.5 KiB (0%)
Language : Ukrainian
Default : No
Forced : No

Text #2
ID : 6
Format : UTF-8
Codec ID : S_TEXT/UTF8
Codec ID/Info : UTF-8 Plain Text
Duration : 1 h 11 min
Bit rate : 18 b/s
Count of elements : 356
Stream size : 9.81 KiB (0%)
Language : English
Default : No
Forced : No

Menu
00:00:00.000 : en:Life Must Go On
00:04:06.913 : en:Not Alone
00:09:51.174 : en:Still Alive
00:12:08.436 : en:World of Chaos
00:15:48.072 : en:In the Watchtower
00:17:36.889 : en:Going after 2
00:20:38.154 : en:The Cat Beast
00:24:20.000 : en:Awaking the Machine
00:29:07.746 : en:Looking for Answers
00:33:38.683 : en:Guided by Fear
00:35:48.563 : en:The Winged Beast
00:40:03.860 : en:Dark Science
00:44:46.183 : en:The Seamstress
00:48:05.382 : en:No More Hiding
00:52:49.833 : en:They’re Coming
00:55:05.427 : en:Trapped
00:59:44.498 : en:Back to the Source
01:03:40.567 : en:Knowing the Truth
01:08:27.437 : en:Free Now
01:12:16.332 : en:End Titles
Скріншоти



Джерело:
Особиста оцінка: 10 - без зайвих вагань рекомендую всім!


 Трекер:    Зареєстрований   

Завантажити / скачати мультфільм українською



відео для новачків



 Зареєстрований:   2018-06-18 19:51
 Розмір:   2.31 GB 
 Оцінка мультфільму:   9.7/10 (Голосів: 20)
   
Інші релізи
   Дев’ять / 9 (2009) Remux 3xUkr/Eng | Sub Ukr/Eng Dr.S  3 / 0   16 GB   2019-01-05 21:09 
   Дев’ять / 9 (2009) 720p 3xUkr/Eng | Sub Ukr/Eng 11FrYkT  8 / 0   3.08 GB   2018-12-14 08:54 
   Дев’ять / 9 (2009) AVC 3xUkr/Eng | Sub Ukr/Eng Sando7  3 / 0   1.97 GB   2018-12-13 13:48 
   Дев’ять / 9 (2009) 1080p 2xUkr/Eng | Sub Ukr/Eng braveboy  7 / 0   4.58 GB   2015-11-28 05:39 
   Дев'ять / Дев’ять / 9 (2009) 2xUkr/Eng patriot2305  5 / 0   1.46 GB   2015-11-26 20:53 
EvGaS 
Відео Гуртом - субтитрування
Відео Гуртом - субтитрування


З нами з: 27.02.12
Востаннє: 31.07.19
Повідомлень: 5663

2018-06-19 13:42  
Гарний антивоєнний/екологічний постапокаліптичний мультфільм з ґрунтовним підтекстом.
Ваш часовий пояс: GMT + 2 Години

Нова тема   Відповісти