[Збір Коштів] Простір (Сезон 3, Серія 1-6) / The Expanse (Season 3, Episode 1-6) (2018) AVC

Нові коментарі

Нова тема   Відповісти
Автор Повідомлення
Arch Enemy 
Відео Гуртом - озвучення
Відео Гуртом - озвучення


З нами з: 30.08.12
Востаннє: 16.07.18
Повідомлень: 1432

2018-06-18 20:15  
Простір (Сезон 3, Серія 1-6) / The Expanse (Season 3, Episode 1-6) (2018) AVC

На озвучення цього серіалу проходить збір коштів


[Збір Коштів] Простір (Сезон 3, Серія 1-6) / The Expanse (Season 3, Episode 1-6) (2018) AVC

Жанр: наукова фантастика, трилер, детектив
Країна: США



Кінокомпанія: Penguin in a Parka, SeanDanielCo , Alcon Entertainment
Режисери: Террі МакДонаф, Джефф Вулнаф, Роберт Ліберман
Актори: Томас Джейн, Стівен Стрейт, Кес Анвар, Уес Четем та інші.

Сюжет:
XXIII століття. Людство колонізувало Сонячну систему. Землею править ООН. Колонія на Марсі тепер незалежна і має власну армію. Внутрішні планети залежать від ресурсів поясу астероїдів. Астероїдяни живуть і працюють у космосі, повітря і вода у них цінується більше за золото. Десятиріччями назрівав конфлікт, який поставив Землю, Марс і Пояс на грань війни. І для її початку вистачить і однієї іскри.

Тривалість: 1 серія/~45 хв., всього серій: 13
Перелік серій
01. Fight or Flight
02. IFF
03. Assured Destruction
04. Reload
05. Triple Point
06. Immolation

07. Delta-V
08. It Reaches Out
09. Intransigence
10. Dandelion Sky
11. Fallen World
12. Congregation
13. Abaddon's Gate
Відео:
якість: AVC
контейнер: mp4
кодек:
частота кадрів: 23.976 кадрів/сек.
розмір кадру: 720х400 пікс.
бітрейт: ~1100 кбіт/сек.

Аудіо:
мова: українська, двоголосе закадрове озвучення.
кодек:
кількість каналів: 2/0
бітрейт: 256 кбіт/сек.
частота: 48000 Гц

Джерело озвучення та релізу: AniUA

MI
General
Complete name : D:\Films\The Expanse (Season 3) SD\The.Expanse.S03E01.mp4
Format : MPEG-4
Format profile : Base Media
Codec ID : isom (isom)
File size : 420 MiB
Duration : 43 min 38 s
Overall bit rate mode : Variable
Overall bit rate : 1 346 kb/s
Encoded date : UTC 2018-06-17 12:24:04
Tagged date : UTC 2018-06-17 12:24:04
Writing application : Yamb 2.1.0.0 [http://yamb.unite-video.com]

Video
ID : 1
Format : AVC
Format/Info : Advanced Video Codec
Format profile : [email protected]
Format settings : CABAC / 5 Ref Frames
Format settings, CABAC : Yes
Format settings, ReFrames : 5 frames
Codec ID : avc1
Codec ID/Info : Advanced Video Coding
Duration : 43 min 37 s
Bit rate : 1 100 kb/s
Maximum bit rate : 11.8 Mb/s
Width : 720 pixels
Height : 400 pixels
Display aspect ratio : 16:9
Frame rate mode : Constant
Frame rate : 23.976 (24000/1001) FPS
Color space : YUV
Chroma subsampling : 4:2:0
Bit depth : 8 bits
Scan type : Progressive
Bits/(Pixel*Frame) : 0.159
Stream size : 339 MiB (81%)
Title : RARBG - The.Expanse.S03E01..-ION10
Writing library : core 152 r2851M ba24899
Encoding settings : cabac=1 / ref=5 / deblock=1:-1:-1 / analyse=0x3:0x113 / me=umh / subme=9 / psy=1 / psy_rd=1.00:0.15 / mixed_ref=1 / me_range=16 / chroma_me=1 / trellis=2 / 8x8dct=1 / cqm=0 / deadzone=21,11 / fast_pskip=1 / chroma_qp_offset=-3 / threads=12 / lookahead_threads=1 / sliced_threads=0 / nr=0 / decimate=1 / interlaced=0 / bluray_compat=0 / constrained_intra=0 / bframes=3 / b_pyramid=2 / b_adapt=2 / b_bias=0 / direct=3 / weightb=1 / open_gop=0 / weightp=2 / keyint=250 / keyint_min=23 / scenecut=40 / intra_refresh=0 / rc_lookahead=50 / rc=abr / mbtree=1 / bitrate=1100 / ratetol=1.0 / qcomp=0.60 / qpmin=0 / qpmax=69 / qpstep=4 / ip_ratio=1.40 / aq=1:1.00
Language : English
Encoded date : UTC 2018-04-12 07:18:06
Tagged date : UTC 2018-06-17 12:24:15

Audio
ID : 2
Format :
Format/Info : Advanced Audio Codec
Format profile : LC
Codec ID : mp4a-40-2
Duration : 43 min 38 s
Bit rate mode : Variable
Bit rate : 256 kb/s
Maximum bit rate : 262 kb/s
Channel(s) : 2 channels
Channel positions : Front: L R
Sampling rate : 48.0 kHz
Frame rate : 46.875 FPS (1024 SPF)
Compression mode : Lossy
Stream size : 79.9 MiB (19%)
Title : AniUA
Language : Ukrainian
Encoded date : UTC 2018-06-17 12:24:14
Tagged date : UTC 2018-06-17 12:24:15


На озвучення цього серіалу проходить збір коштів
(У коментарі до переказу вказуйте назву, будь ласка: EXP)

На весь сезон, знадобиться 14300 грн. (1 серія/1100 грн. )


Станом на 15.07.2018 зібрано 10192 грн.
Прохання до тих, хто робить переказ і не вказує на що воно має піти - в таких випадках пишіть мені приватне повідомлення скільки на що і від кого, або з якого рахунку.


Авторський реліз (завантажувати можна без реєстрації)
 Трекер:    Зареєстрований   

Завантажити / скачати серіал українською



відео для новачків



 Зареєстрований:   2018-07-14 12:55
 Розмір:   2.44 GB 
 Оцінка серіалу:   9.9/10 (Голосів: 22)
   
Darwin 
Поважний учасник


З нами з: 25.05.09
Востаннє: 16.07.18
Повідомлень: 192

2018-06-18 20:23  
Величезна подяка)
Arch Enemy 
Відео Гуртом - озвучення
Відео Гуртом - озвучення


З нами з: 30.08.12
Востаннє: 16.07.18
Повідомлень: 1432

2018-06-18 20:24  
Станом на 18.06.2018 зібрано 3930 грн.
Розпочато переклад 3 серії

Також отримали не підписаний переказ на 100 грн., прохання відписати в мені в приват для чого і з якого рахунку, бо якщо не знайдеться відправник - піде на оплату за хостинг))).

Arch Enemy 
Відео Гуртом - озвучення
Відео Гуртом - озвучення


З нами з: 30.08.12
Востаннє: 16.07.18
Повідомлень: 1432

2018-06-24 01:16  
Додано 02 серію
Станом на 23.06.2018 зібрано 6130 грн.
Розпочато переклад 4-5 серій

Виправлено деякі репліки в 1 серії.

Dmy-tro 
Новенький


З нами з: 02.01.13
Востаннє: 13.07.18
Повідомлень: 4

2018-06-27 15:50  
Крутезний серіал! Дякую, що озвучуєте 3-й сезон!
Arch Enemy 
Відео Гуртом - озвучення
Відео Гуртом - озвучення


З нами з: 30.08.12
Востаннє: 16.07.18
Повідомлень: 1432

2018-06-29 19:01  
Додано 03 серію

Яніс Вермінко 
Частий відвідувач


З нами з: 07.02.18
Востаннє: 15.07.18
Повідомлень: 42

2018-07-01 21:23  
А хто озвучує? Вже не Гвен і Маслінка?
Arch Enemy 
Відео Гуртом - озвучення
Відео Гуртом - озвучення


З нами з: 30.08.12
Востаннє: 16.07.18
Повідомлень: 1432

2018-07-01 23:46  
Яніс Вермінко написано:
А хто озвучує? Вже не Гвен і Маслінка?

Можете скачати та послухати або десь в онлайні глянути)))

starlost 
Поважний учасник


З нами з: 07.08.15
Востаннє: 15.07.18
Повідомлень: 214

2018-07-02 00:14  
Яніс Вермінко
ґвен та якась панянка, незнаю, но не маслінка. принаймні в другій серії. в кінці серії лише "студія аніюа"
може маурістія, чи якось так, разок чув і нік і голос тому можу помилятись.
Arch Enemy
це аж така таємниця?)

Arch Enemy 
Відео Гуртом - озвучення
Відео Гуртом - озвучення


З нами з: 30.08.12
Востаннє: 16.07.18
Повідомлень: 1432

2018-07-02 08:11  
starlost написано:
це аж така таємниця?)

Дуже страшна таємниця)))

Яніс Вермінко 
Частий відвідувач


З нами з: 07.02.18
Востаннє: 15.07.18
Повідомлень: 42

2018-07-02 09:43  
Ну і відношення, нічого не скажеш.
NeetScrool 
Відео Гуртом - фільмокрай
Відео Гуртом - фільмокрай


З нами з: 10.01.13
Востаннє: 15.07.18
Повідомлень: 2831

2018-07-02 10:00  
Яніс Вермінко
За озвучення за бабки без ліцензії можуть і за яйця взяти. Як це було із Омікроном.

Яніс Вермінко 
Частий відвідувач


З нами з: 07.02.18
Востаннє: 15.07.18
Повідомлень: 42

2018-07-03 12:34  
На питання можна було відповісти так чи ні. Можна було написати, наприклад, те що написав ти. Але замість змістовної відповіді я отримав якусь риганину. Що я можу сказати. Щасти вам з таким відношенням.
Arch Enemy 
Відео Гуртом - озвучення
Відео Гуртом - озвучення


З нами з: 30.08.12
Востаннє: 16.07.18
Повідомлень: 1432

2018-07-03 15:15  
Яніс Вермінко написано:
На питання можна було відповісти так чи ні. Можна було написати, наприклад, те що написав ти. Але замість змістовної відповіді я отримав якусь риганину. Що я можу сказати. Щасти вам з таким відношенням.

Перепрошую за попередній пост, насправді ж дійсно ми не розголошуємо імена/нікнейми наших акторів, тому й запропонував вам прослухати наше озвучення з надією, що можливо почуєте знайомі голоси. Шкода, що вийшло непорозуміння, тому ще раз перепрошую за це.

Arch Enemy 
Відео Гуртом - озвучення
Відео Гуртом - озвучення


З нами з: 30.08.12
Востаннє: 16.07.18
Повідомлень: 1432

2018-07-06 20:57  
Додано 04 серію

Arch Enemy 
Відео Гуртом - озвучення
Відео Гуртом - озвучення


З нами з: 30.08.12
Востаннє: 16.07.18
Повідомлень: 1432

2018-07-10 15:16  
Додано 05 серію

Arch Enemy 
Відео Гуртом - озвучення
Відео Гуртом - озвучення


З нами з: 30.08.12
Востаннє: 16.07.18
Повідомлень: 1432

2018-07-14 12:55  
Додано 06 серію

Станом на 14.07.2018 зібрано 9992 грн.

Arch Enemy 
Відео Гуртом - озвучення
Відео Гуртом - озвучення


З нами з: 30.08.12
Востаннє: 16.07.18
Повідомлень: 1432

2018-07-15 15:01  
==============================================
Знову отримали не підписаний платіж на 200 грн. взагалі невідомо від кого і мабуть з якогось банкомата.
Прохання зконтактувати зі мною в приват та написати від кого і на що і час коли була проведена транзакція (переказ).
==============================================

[email protected] 
Відео Гуртом - підтримка та поширення
Відео Гуртом - підтримка та поширення


З нами з: 16.06.12
Востаннє: 15.07.18
Повідомлень: 1246

2018-07-15 22:17  
Arch Enemy добре, коли закидують капусту, погано коли немає Happy
Ваш часовий пояс: GMT + 2 Години

Нова тема   Відповісти