Голос трави (1992)

Нові коментарі

Нова тема   Відповісти
Автор Повідомлення
ukrrku 
Частий відвідувач


З нами з: 24.03.09
Востаннє: 15.12.20
Повідомлень: 25

2018-06-18 16:05  
Голос трави (1992)

Голос трави (1992)


Жанр: містика, драма
Країна: Україна



Кінокомпанія: Одеська кіновідеостудія
Режисер: Наталія Мотузко
Актори: Раїса Недашківська, Ольга Сумська, Сергій Севастянов, Сергій Тарасов, Володимир Міняйло

Сюжет:
Фільм розповідає історію посвячення молодої чарівниці у таємниці чаклунства. Фільму притаманна поетична стилістика, джерелом якої є український фольклор.


Тривалість: 01:27:00
Якість:
Відео:
кодек:
розмір кадру: 720x528
бітрейт: 2049 Кбіт/с

Аудіо:
мова: українська
кодек: MP3
бітрейт: 192 кб/с
Скріншоти

Info

General
Complete name : Голос трави (1992).avi
Format : AVI
Format/Info : Audio Video Interleave
File size : 1.38 GiB
Duration : 1 h 27 min
Overall bit rate : 2 251 kb/s
Writing library : VirtualDub build 31953/release

Video
ID : 0
Format : MPEG-4 Visual
Format profile : Advanced [email protected]
Format settings : BVOP2
Format settings, BVOP : 2
Format settings, QPel : No
Format settings, GMC : No warppoints
Format settings, Matrix : Default (MPEG)
Muxing mode : Packed bitstream
Codec ID :
Codec ID/Hint :
Duration : 1 h 27 min
Bit rate : 2 049 kb/s
Width : 720 pixels
Height : 528 pixels
Display aspect ratio : 4:3
Frame rate : 25.000 FPS
Color space : YUV
Chroma subsampling : 4:2:0
Bit depth : 8 bits
Scan type : Progressive
Compression mode : Lossy
Bits/(Pixel*Frame) : 0.216
Stream size : 1.25 GiB (91%)
Writing library : 64

Audio
ID : 1
Format : MPEG Audio
Format version : Version 1
Format profile : Layer 3
Format settings : Joint stereo
Codec ID : 55
Codec ID/Hint : MP3
Duration : 1 h 27 min
Bit rate mode : Constant
Bit rate : 192 kb/s
Channel(s) : 2 channels
Sampling rate : 48.0 kHz
Compression mode : Lossy
Stream size : 120 MiB (9%)
Alignment : Split accross interleaves
Interleave, duration : 40 ms (1.00 video frame)
Interleave, preload duration : 500 ms
Джерело:
Особиста оцінка: 0 - не дивився


Золотий реліз (завантажене не впливає на рейтинг)
 Трекер:    Зареєстрований   

Завантажити / скачати український фільм



відео для новачків



 Зареєстрований:   2018-06-18 16:05
 Розмір:   1.38 GB 
 Оцінка фільму:   9.5/10 (Голосів: 23)
   
601сан 
VIP


З нами з: 22.05.12
Востаннє: 05.03.21
Повідомлень: 353

2018-06-18 18:10  
ДЯКУЮ!!!
piznajko 
Відео Гуртом - субтитрування
Відео Гуртом - субтитрування


З нами з: 24.02.09
Востаннє: 17.11.20
Повідомлень: 2196

2018-06-19 16:36  
ukrrku 
Частий відвідувач


З нами з: 24.03.09
Востаннє: 15.12.20
Повідомлень: 25

2018-06-20 09:28  
piznajko
дякую, додав імдб

evpdzen 
Поважний учасник


З нами з: 17.03.10
Востаннє: 03.03.21
Повідомлень: 212

2018-07-18 16:59  
Абсолютний шедевр 10 з10. Обов'язкове до перегляду.
zaika 
VIP


З нами з: 01.07.12
Востаннє: 04.03.21
Повідомлень: 1245

2018-07-18 18:04  
Гарний фільм. Мало того, що автори зуміли відтворити на екрані В. Шевчука, але зробили це в манері містичного поетичного кіно. І це їм безперечно вдалось. Це сам В. Шевчук. +9/10.
vavlap 
Поважний учасник


З нами з: 24.01.15
Востаннє: 03.03.21
Повідомлень: 150

2020-01-24 10:21  
Цитата:
Гарний фільм. Мало того, що автори зуміли відтворити на екрані В. Шевчука, але зробили це в манері містичного поетичного кіно. І це їм безперечно вдалось. Це сам В. Шевчук. +9/10.


Шевчук (або режисер) потрапив в тенета дешевої драми, а там де драма - там немає правди. Ця ж драма зжерла і всю поетичність. 6/10.

kinoroman 
Поважний учасник


З нами з: 04.12.16
Востаннє: 04.03.21
Повідомлень: 204

2020-01-25 17:50  
Гарний фільм-притча. 9/10.
Дякую всім причетним до релізу.

Ваш часовий пояс: GMT + 2 Години

Нова тема   Відповісти