Фото за годину / One Hour Photo (2002) Remux 1080p Ukr/Eng | Sub Ukr/Eng

Нові коментарі

Нова тема   Відповісти
Автор Повідомлення
staf777 
Відео Гуртом - підтримка та поширення
Відео Гуртом - підтримка та поширення


З нами з: 16.11.16
Востаннє: 27.09.20
Повідомлень: 4053

2018-06-17 20:46  
Фото за годину / One Hour Photo (2002) Remux 1080p Ukr/Eng | Sub Ukr/Eng

Фото за годину / One Hour Photo (2002) Remux 1080p Ukr/Eng | Sub Ukr/Eng


Жанр: драма, психологічний трилер
Країна: США



Кінокомпанія: Fox Searchlight Pictures, Catch 23 Entertainment, Killer Films
Режисер: Марк Романек / Mark Romanek
Актори: Робін Вільямс / Robin Williams, Майкл Вартан / Michael Vartan, Конні Нілсен / Connie Nielsen, Ділан Сміт / Dylan Smith, Гарі Коул / Gary Cole, Ерік Ла Салле / Eriq La Salle, Пол Г. Кім / Paul H. Kim

Сюжет:
Сей Перріш (Робін Вільямс) - самотня, нещасна, літня людина без сім'ї, рідних та друзів. Єдиний сенс його життя - це робота в фотолабораторії, яку він очолює вже 20 років. У житті його ніщо не хвилює, окрім фотографій, які він створює з високим професіоналізмом. Його цінують клієнти, особливо сімейство Йоркін, яке протягом багатьох років давало йому на обробку щотижня свої знімки. За ці роки Сей за фотографіями уважно вивчив життя їх сім'ї і полюбив її, але не подав вигляду. І ось, дізнавшись про складнощі в сім'ї Йоркін, Перріш вирішує сам втрутитися в їхнє життя, вириваючи назовні всі роки свого безумства, самотності і таємної пристрасті...


Тривалість: 01:36:01
Якість: Remux 1080p
Відео:
кодек:
розмір кадру: 1920x1080
бітрейт: 34 Mб/с

Аудіо # 1:
мова: українська
переклад: багатоголосий закадровий
кодек: 5.1
бітрейт: 448 кб/с

Аудіо # 2:
мова: англійська
переклад: оригінал
кодек: -HD MA 5.1
бітрейт: 3840 кб/с

Субтитри # 1:
мова: українська
тип: пререндерні
формат: *.pgs

Субтитри # 2:
мова: англійська
тип: пререндерні
формат: *.pgs
Info
General
Unique ID : 180736796725714548552383880511648779277 (0x87F8A41126109B5B8E7DD3DB2D254C0D)
Complete name : S:\Фільми в HD\Трилер\One Hour Photo (2002) Remux 1080p[Ukr,Eng sub.Ukr,Eng][Hurtom].
Format :
Format version : Version 4 / Version 2
File size : 25.7 GiB
Duration : 1 h 36 min
Overall bit rate mode : Variable
Overall bit rate : 38.3 Mb/s
Movie name : One Hour Photo (2002) Remux 1080p[Ukr,Eng sub.Ukr,Eng][Hurtom]
Encoded date : UTC 2018-06-19 12:27:11
Writing application : v9.8.0 ('Kuglblids') 64bit
Writing library : libebml v1.3.4 + v1.4.5
Cover : Yes
Attachments : cover.jpg

Video
ID : 1
Format : AVC
Format/Info : Advanced Video Codec
Format profile : [email protected]
Format settings : CABAC / 4 Ref Frames
Format settings, CABAC : Yes
Format settings, ReFrames : 4 frames
Codec ID : V_MPEG4/ISO/AVC
Duration : 1 h 36 min
Bit rate mode : Variable
Bit rate : 34.0 Mb/s
Maximum bit rate : 38.5 Mb/s
Width : 1 920 pixels
Height : 1 080 pixels
Display aspect ratio : 16:9
Frame rate mode : Constant
Frame rate : 23.976 (24000/1001) FPS
Color space : YUV
Chroma subsampling : 4:2:0
Bit depth : 8 bits
Scan type : Progressive
Bits/(Pixel*Frame) : 0.684
Stream size : 22.8 GiB (89%)
Default : Yes
Forced : No

Audio #1
ID : 2
Format : AC-3
Format/Info : Audio Coding 3
Codec ID : A_AC3
Duration : 1 h 35 min
Bit rate mode : Constant
Bit rate : 448 kb/s
Channel(s) : 6 channels
Channel positions : Front: L C R, Side: L R, LFE
Sampling rate : 48.0 kHz
Frame rate : 31.250 FPS (1536 SPF)
Bit depth : 16 bits
Compression mode : Lossy
Stream size : 308 MiB (1%)
Title : [UA-MVO-KIHO]
Language : Ukrainian
Service kind : Complete Main
Default : Yes
Forced : Yes

Audio #2
ID : 3
Format :
Format/Info : Digital Theater Systems
Format profile : MA / Core
Codec ID : A_DTS
Duration : 1 h 36 min
Bit rate mode : Variable / Constant
Bit rate : 3 840 kb/s / 1 509 kb/s
Channel(s) : 6 channels
Channel positions : Front: L C R, Side: L R, LFE
Sampling rate : 48.0 kHz
Frame rate : 93.750 FPS (512 SPF)
Bit depth : 24 bits
Compression mode : Lossless / Lossy
Stream size : 2.53 GiB (10%)
Language : English
Default : No
Forced : No

Text #1
ID : 4
Format : PGS
Muxing mode : zlib
Codec ID : S_HDMV/PGS
Codec ID/Info : Picture based subtitle format used on BDs/HD-DVDs
Duration : 1 h 26 min
Bit rate : 17.0 kb/s
Count of elements : 1848
Stream size : 10.5 MiB (0%)
Language : Ukrainian
Default : No
Forced : No

Text #2
ID : 5
Format : PGS
Muxing mode : zlib
Codec ID : S_HDMV/PGS
Codec ID/Info : Picture based subtitle format used on BDs/HD-DVDs
Duration : 1 h 25 min
Bit rate : 8 310 b/s
Count of elements : 1544
Stream size : 5.09 MiB (0%)
Language : English
Default : No
Forced : No
Скріншоти



Джерело: &
Особиста оцінка: 0 - не дивився


Золотий реліз (завантажене не впливає на рейтинг)
 Трекер:    Зареєстрований   

Завантажити / скачати фільм українською



відео для новачків



 Зареєстрований:   2018-06-19 18:05
 Розмір:   25.67 GB 
 Оцінка фільму:   9.2/10 (Голосів: 5)
   
bot 
робот


З нами з: 30.09.07
Востаннє: 26.05.05
Повідомлень: 25634

2018-06-19 18:05  
Тему перенесено з Анонси релізів до форуму Фільми в HD


staf777

Oleksa9 
VIP


З нами з: 17.05.12
Востаннє: 27.09.20
Повідомлень: 412

2018-06-24 20:34  
Кіно варте перегляду!
Ваш часовий пояс: GMT + 2 Години

Нова тема   Відповісти