Супертато / Superdad (1973) 720p Ukr/Eng | Sub Eng

Нові коментарі

Нова тема   Відповісти
Автор Повідомлення
Anonymous 







2018-06-17 11:03  
Супертато / Superdad (1973) 720p Ukr/Eng | Sub Eng



Жанр: сімейний, комедія
Країна: США



Кінокомпанія: Disney
Режисер: Вінсент Мкевіті
Актори: Боб Крейн, Курт Рассел, Барбара Раш, Джо Флінн, Кетлін Коді

Сюжет:
Незадоволений компанією, з якою водиться його дочка Венді, Чарлі МакКреді вирішує розлучити старих друзів. Дізнавшись, що всі вони після школи збираються вступати до одного і того ж коледжу, Чарлі спеціально робить так, щоб його дочка вступила до іншого навчального закладу. Однак Венді незабаром дізнається про його витівки і вирішує на зло батькові почати зустрічатися з хлопцем-хіпі.


Тривалість: 01:35:10
Якість:
Відео:
кодек:
розмір кадру: 1280x688
бітрейт: 4143 кб/с

Аудіо # 1:
мова: українська
переклад: багатоголосий закадровий Le Doyen
кодек: 2.0
бітрейт: 192 кб/с
Інформація про озвчуення
Ролі озвучили: Максим Кондратюк, Дарина Муращенко, Андрій Соболєв, Катерина Сергеєва, Володимир Паляниця, Євген Пашин
Перекладач: Роман Дяченко
Режисер: Ольга Чернілевська
Звукорежисер: Алольона Шиманович
Озвучено і зміксовано студією: Le Doyen
Аудіо # 2:
мова: англійська
переклад: оригінал
кодек: 2.0
бітрейт: 121 кб/с

Субтитри:
мова: англійська
тип: програмні (м'які)
формат: *.srt
Info
Complete name : E:\Superdad (1973) 720p [UKR_ENG] [Hurtom].
Format :
Format version : Version 4 / Version 2
File size : 2.96 GiB
Duration : 1 h 35 min
Overall bit rate : 4 459 kb/s
Encoded date : UTC 2018-06-16 17:06:27
Writing application : v24.0.0 ('Beyond The Pale') 64-bit
Writing library : libebml v1.3.6 + v1.4.9
Cover : Yes
Attachments : cover.jpg

Video
ID : 1
Format : AVC
Format/Info : Advanced Video Codec
Format profile : [email protected]
Format settings, CABAC : No
Format settings, RefFrames : 2 frames
Codec ID : V_MPEG4/ISO/AVC
Duration : 1 h 35 min
Bit rate : 4 143 kb/s
Width : 1 280 pixels
Height : 688 pixels
Display aspect ratio : 1.85:1
Frame rate mode : Constant
Frame rate : 23.976 (23976/1000) FPS
Color space : YUV
Chroma subsampling : 4:2:0
Bit depth : 8 bits
Scan type : Progressive
Bits/(Pixel*Frame) : 0.196
Stream size : 2.75 GiB (93%)
Language : English
Default : Yes
Forced : No
Color range : Limited
Color primaries : BT.709
Transfer characteristics : BT.709
Matrix coefficients : BT.709

Audio #1
ID : 2
Format : AC-3
Format/Info : Audio Coding 3
Format settings, Endianness : Big
Codec ID : A_AC3
Duration : 1 h 35 min
Bit rate mode : Constant
Bit rate : 192 kb/s
Channel(s) : 2 channels
Channel positions : Front: L R
Sampling rate : 48.0 kHz
Frame rate : 31.250 FPS (1536 SPF)
Bit depth : 16 bits
Compression mode : Lossy
Stream size : 131 MiB (4%)
Title : 2.0 @ 192 kbps - MVO, LeDoyen
Language : Ukrainian
Service kind : Complete Main
Default : Yes
Forced : Yes

Audio #2
ID : 3
Format :
Format/Info : Advanced Audio Codec
Format profile : LC
Codec ID : A_AAC
Duration : 1 h 35 min
Bit rate : 121 kb/s
Channel(s) : 2 channels
Channel positions : Front: L R
Sampling rate : 48.0 kHz
Frame rate : 46.875 FPS (1024 SPF)
Compression mode : Lossy
Stream size : 82.2 MiB (3%)
Title : 2.0 @ 121 kbps - Original
Language : English
Default : No
Forced : No

Text
ID : 4
Format : UTF-8
Codec ID : S_TEXT/UTF8
Codec ID/Info : UTF-8 Plain Text
Duration : 1 h 34 min
Bit rate : 79 b/s
Count of elements : 1866
Stream size : 55.6 KiB (0%)
Title : SHD
Language : English
Default : No
Forced : No

Menu
00:00:00.000 : en:Opening Credits
00:03:19.000 : en:My Little Girl
00:06:49.000 : en:Going Back to L.A.
00:14:34.000 : en:At The Beach With Dad
00:24:02.000 : en:Funny Movie
00:30:07.000 : en:Family Problem
00:38:46.000 : en:Mother Barlow's Boarding House
00:45:57.000 : en:Register With Claude Archer
00:53:29.000 : en:Roger Is Just My Dad's Type
00:59:02.000 : en:Wendy Is Missing
01:04:30.000 : en:Hershberger
01:10:13.000 : en:Wendy's Little Problem
01:14:17.000 : en:Strightening Out The Problem
01:19:37.000 : en:Klutch
01:26:27.000 : en:Getting To The Church
01:31:33.000 : en:Bart & Wendy's Wedding
Скріншоти







Подяка: Electroz за доріжку, синхронізацію та підготовку релізу.
Джерело:
Особиста оцінка: 0 - не дивився


Срібний реліз (на рейтинг впливає 50% завантаженого)
 Трекер:    Зареєстрований   

Завантажити / скачати фільм українською



відео для новачків



 Зареєстрований:   2018-06-17 11:03
 Розмір:   2.96 GB 
 Оцінка фільму:   10/10 (Голосів: 5)
   
Інші релізи
   Супертато / Superdad (1973) Arsenfpu  2 / 0   1.46 GB   2019-05-18 11:45 
piznajko 
Відео Гуртом - субтитрування
Відео Гуртом - субтитрування


З нами з: 24.02.09
Востаннє: 16.09.20
Повідомлень: 2198

2019-01-01 06:51  
SD реліз?
Ваш часовий пояс: GMT + 2 Години

Нова тема   Відповісти