Бетховен / Beethoven (1992) Remux 1080p 2xUkr/Eng | Sub Eng

Нові коментарі

Нова тема   Відповісти
Автор Повідомлення
staf777 
Попереджень: 1
Попереджень: 1 


З нами з: 16.11.16
Востаннє: 16.10.18
Повідомлень: 1632

2018-06-17 10:13  
Бетховен / Beethoven (1992) Remux 1080p 2xUkr/Eng | Sub Eng

Бетховен / Beethoven (1992) Remux 1080p 2xUkr/Eng | Sub Eng
Оригінальна обкладинка


Жанр: комедія, дитячий, сімейний, драма
Країна: США



Кінокомпанія: Universal Pictures
Режисер: Брайан Левант
Актори: Чарлз Гродін (Джордж Ньютон), Бонні Хант (Еліс Ньютон), Дін Джонс (Герман Варнік), Ніколь Том (Раіс Ньютон), Крістофер Кастіль (Тед Ньютон), Сара Роуз Карр (Емілі Ньютон), Олівер Платт (Харвей), Стенлі Туччі (Вернон), Девід Духовни (Бред), Патриція Хітон (Брі)

Сюжет:
Герой фільму - собака породи сенбернар на ім'я Бетховен. Ще цуциком потрапивши до сім'ї Ньютонів, Бетховен одразу став найкращим другом для дітей та їх матері. І тільки батько дивився з-під лоба на пса. До одного ветеринара надійшло замовлення на випробування нових куль. Для проведення дослідів був потрібний великий собака. В маленькому містечку знайти такого - досить важке завдання, але йому пощастило.
До нього на прийом потрапила сім'я Ньютонів зі своїм псом Бетховеном. Ветеринар вирішує будь-якою ціною отримати собаку…


Тривалість: 01:27:01
Якість: Remux 1080p
Відео:
кодек:
розмір кадру: 1920x1080
бітрейт: 33,6 Мб/с

Аудіо # 1:
мова: українська
переклад: багатоголосий закадровий
кодек: 2.0
бітрейт: 192 кб/с

Аудіо # 2:
мова: українська
переклад: багатоголосий закадровий
кодек: 2.0
бітрейт: 192 кб/с

Аудіо # 3:
мова: англійська
переклад: оригінал
кодек: -HD MA 2.0
бітрейт: 2103 кб/с

Субтитри:
мова: англійська
тип: програмні (м'які)
формат: *.srt
Info
General
Unique ID : 207234704856229002577646078333755177602 (0x9BE7F3CDDB8567C499A1B0C71731BA82)
Complete name : G:\Майбутні релізи\ Beethoven (1992) [2xUkr,Eng sub.Eng] Remux 1080p [Hurtom].
Format :
Format version : Version 4 / Version 2
File size : 21.9 GiB
Duration : 1 h 27 min
Overall bit rate mode : Variable
Overall bit rate : 36.1 Mb/s
Movie name : Beethoven (1992) [2xUkr,Eng sub.Eng] Remux 1080p [Hurtom]
Encoded date : UTC 2018-06-17 06:25:21
Writing application : v9.8.0 ('Kuglblids') 64bit
Writing library : libebml v1.3.4 + v1.4.5
Cover : Yes
Attachments : cover.jpg

Video
ID : 1
Format : AVC
Format/Info : Advanced Video Codec
Format profile : [email protected]
Format settings : CABAC / 4 Ref Frames
Format settings, CABAC : Yes
Format settings, ReFrames : 4 frames
Codec ID : V_MPEG4/ISO/AVC
Duration : 1 h 27 min
Bit rate mode : Variable
Bit rate : 33.6 Mb/s
Maximum bit rate : 35.0 Mb/s
Width : 1 920 pixels
Height : 1 080 pixels
Display aspect ratio : 16:9
Frame rate mode : Constant
Frame rate : 23.976 (24000/1001) FPS
Color space : YUV
Chroma subsampling : 4:2:0
Bit depth : 8 bits
Scan type : Progressive
Bits/(Pixel*Frame) : 0.675
Stream size : 20.4 GiB (93%)
Title : Beethoven.1992.Remux.1080p_by_vedigo
Default : Yes
Forced : No

Audio #1
ID : 2
Format : AC-3
Format/Info : Audio Coding 3
Codec ID : A_AC3
Duration : 1 h 27 min
Bit rate mode : Constant
Bit rate : 192 kb/s
Channel(s) : 2 channels
Channel positions : Front: L R
Sampling rate : 48.0 kHz
Frame rate : 31.250 FPS (1536 SPF)
Bit depth : 16 bits
Compression mode : Lossy
Stream size : 120 MiB (1%)
Title : UA-MVO- ICTV
Language : Ukrainian
Service kind : Complete Main
Default : Yes
Forced : Yes

Audio #2
ID : 3
Format : AC-3
Format/Info : Audio Coding 3
Codec ID : A_AC3
Duration : 1 h 27 min
Bit rate mode : Constant
Bit rate : 192 kb/s
Channel(s) : 2 channels
Channel positions : Front: L R
Sampling rate : 48.0 kHz
Frame rate : 31.250 FPS (1536 SPF)
Bit depth : 16 bits
Compression mode : Lossy
Stream size : 120 MiB (1%)
Title : UA-MVO-[УКРАIНА]
Language : Ukrainian
Service kind : Complete Main
Default : No
Forced : No

Audio #3
ID : 4
Format :
Format/Info : Digital Theater Systems
Format profile : MA / Core
Codec ID : A_DTS
Duration : 1 h 27 min
Bit rate mode : Variable / Constant
Bit rate : 2 103 kb/s / 1 509 kb/s
Channel(s) : 2 channels
Channel positions : Front: L R
Sampling rate : 48.0 kHz
Frame rate : 93.750 FPS (512 SPF)
Bit depth : 24 bits
Compression mode : Lossless / Lossy
Stream size : 1.28 GiB (6%)
Title : Original
Language : English
Default : No
Forced : No

Text
ID : 5
Format : UTF-8
Codec ID : S_TEXT/UTF8
Codec ID/Info : UTF-8 Plain Text
Duration : 1 h 22 min
Bit rate : 58 b/s
Count of elements : 1238
Stream size : 35.4 KiB (0%)
Title : Subtitle eng
Language : English
Default : No
Forced : No

Menu
00:00:00.000 : en:00:00:00.000
00:08:36.599 : en:00:08:36.599
00:15:18.835 : en:00:15:18.835
00:16:50.801 : en:00:16:50.801
00:20:01.826 : en:00:20:01.826
00:23:13.475 : en:00:23:13.475
00:27:02.538 : en:00:27:02.538
00:32:58.602 : en:00:32:58.602
00:37:58.026 : en:00:37:58.026
00:42:20.455 : en:00:42:20.455
00:48:24.151 : en:00:48:24.151
00:57:14.973 : en:00:57:14.973
01:00:53.441 : en:01:00:53.441
01:07:56.906 : en:01:07:56.906
01:13:56.766 : en:01:13:56.766
01:22:46.962 : en:01:22:46.962
Скріншоти





Джерело:
Подяка Sando7 та Leggy за українські доріжки.



Золотий реліз (завантажене не впливає на рейтинг)
 Трекер:    Зареєстрований   

Завантажити / скачати фільм українською



відео для новачків



 Зареєстрований:   2018-06-17 18:18
 Розмір:   21.92 GB 
 Оцінка фільму:   8/10 (Голосів: 5)
   
Інші релізи
   Бетховен / Beethoven (1992) 1080p 2xUkr/Eng | Sub Eng boroznaya  2 / 0   10.26 GB   2018-02-28 13:56 
   Бетховен / Beethoven (1992) 2xUkr/Eng | Sub Eng igor911  5 / 0   1.46 GB   2017-01-07 17:24 
   Бетховен / Beethoven (1992) 720p 2xUkr/Eng | Sub Eng staf777  3 / 0   5.92 GB   2017-01-03 14:36 
bot 
робот


З нами з: 30.09.07
Востаннє: 26.05.05
Повідомлень: 19956

2018-06-17 18:18  
Тему перенесено з Анонси релізів до форуму Фільми в HD


staf777

uaxpasha 
Поважний учасник


З нами з: 05.08.12
Востаннє: 14.10.18
Повідомлень: 231

2018-06-19 20:36  
Фільм дитинства.... а насправді такий шлак, просто кіно-непотреб хіба так важко по телевізору показувати щось нормальне, аби такі спогади з дитинства можна було переглядати, а не оце.

За реліз дякую

Oleksa9 
VIP


З нами з: 17.05.12
Востаннє: 17.10.18
Повідомлень: 309

2018-09-02 13:04  
Наступні частини такою якістю?
Ваш часовий пояс: GMT + 2 Години

Нова тема   Відповісти