Майор Пейн / Major Payne (1995) Remux 1080p 2xUkr/Eng | Sub Eng

Нові коментарі

Нова тема   Відповісти
Автор Повідомлення
staf777 
Відео Гуртом - підтримка та поширення
Відео Гуртом - підтримка та поширення


З нами з: 16.11.16
Востаннє: 18.04.19
Повідомлень: 2258

2018-06-16 11:58  
Майор Пейн / Major Payne (1995) Remux 1080p 2xUkr/Eng | Sub Eng

Майор Пейн / Major Payne (1995) Remux 1080p 2xUkr/Eng | Sub Eng


Жанр: комедія
Країна: США



Кінокомпанія: Universal Pictures
Режисер: Нік Касл
Актори: Деймон Вайанс, Майкл Айронсайд, Керін Парсонс, Росс Бікелл, Скотт Бігелоу, Йода Блейр, Орландо Браун, Пейтон Чессон-Фол, Стівен Коулмен, Марк Конуей, Девід ДіХарт, Джошуа Тодд Дівелі

Сюжет:
Майору ніяк не присвоять звання полковника з однієї причини - він уміє тільки вбивати, ні на що інше він просто не здатний. Його відправляють у відставку. Робота в поліції йому не підходить, і наш герой вмирає від нудьги в одному з номерів готелю.
Несподівано він отримує пропозицію стати інструктором по військовій підготовці у військовому навчальному закладі. Про те, як складуться відносини жорстокого солдата-вбивці з юними хлопцями і однією вельми привабливою викладачкою розповідає ця весела комедія, що містить багацько кумедних жартів і смішних ситуацій.


Тривалість: 01:36:59
Якість: Remux 1080p
Відео:
кодек:
розмір кадру: 1920x1080
бітрейт: 27.9 Mб/с

Аудіо # 1:
мова: українська
переклад: багатоголосий закадровий
кодек: 2.0
бітрейт: 192 кб/с

Аудіо # 2:
мова: українська
переклад: багатоголосий закадровий
кодек: 2.0
бітрейт: 192 кб/с

Аудіо # 3:
мова: англійська
переклад: оригінал
кодек: HD-MA 5.1
бітрейт: 4206 кб/с

Субтитри # 1-2:
мова: англійська
тип: програмні (м'які)
формат: *.srt
Info
General
Unique ID : 311586224461241456756434216532236431302 (0xEA6952F15386E23B2ACE604FE8DDEFC6)
Complete name : F:\Комедія\Major Payne (1995) Remux 1080p[2xUkr][Eng] [Sub Eng][Hurtom].
Format :
Format version : Version 4
File size : 22.0 GiB
Duration : 1 h 36 min
Overall bit rate mode : Variable
Overall bit rate : 32.5 Mb/s
Movie name : Major Payne (1995) Remux 1080p[2xUkr][Eng] [Sub Eng][Hurtom]
Encoded date : UTC 2019-02-06 12:32:49
Writing application : v30.1.0 ('Forever And More') 64-bit
Writing library : libebml v1.3.6 + v1.4.9
Cover : Yes
Attachments : cover.jpg

Video
ID : 1
Format : AVC
Format/Info : Advanced Video Codec
Format profile : [email protected]
Format settings : CABAC / 2 Ref Frames
Format settings, CABAC : Yes
Format settings, ReFrames : 2 frames
Codec ID : V_MPEG4/ISO/AVC
Duration : 1 h 36 min
Bit rate mode : Variable
Bit rate : 27.9 Mb/s
Width : 1 920 pixels
Height : 1 080 pixels
Display aspect ratio : 16:9
Frame rate mode : Constant
Frame rate : 23.976 (24000/1001) FPS
Color space : YUV
Chroma subsampling : 4:2:0
Bit depth : 8 bits
Scan type : Progressive
Bits/(Pixel*Frame) : 0.561
Stream size : 18.9 GiB (86%)
Default : Yes
Forced : No

Audio #1
ID : 2
Format : AC-3
Format/Info : Audio Coding 3
Commercial name : Dolby Digital
Codec ID : A_AC3
Duration : 1 h 36 min
Bit rate mode : Constant
Bit rate : 192 kb/s
Channel(s) : 2 channels
Channel layout : L R
Sampling rate : 48.0 kHz
Frame rate : 31.250 FPS (1536 SPF)
Bit depth : 16 bits
Compression mode : Lossy
Stream size : 133 MiB (1%)
Title : [UA-MVO]
Language : Ukrainian
Service kind : Complete Main
Default : Yes
Forced : Yes

Audio #2
ID : 3
Format : AC-3
Format/Info : Audio Coding 3
Commercial name : Dolby Digital
Codec ID : A_AC3
Duration : 1 h 36 min
Bit rate mode : Constant
Bit rate : 192 kb/s
Channel(s) : 2 channels
Channel layout : L R
Sampling rate : 48.0 kHz
Frame rate : 31.250 FPS (1536 SPF)
Bit depth : 16 bits
Compression mode : Lossy
Stream size : 133 MiB (1%)
Title : CINE+
Language : Ukrainian
Service kind : Complete Main
Default : No
Forced : No

Audio #3
ID : 4
Format : XLL
Format/Info : Digital Theater Systems
Commercial name : -HD Master Audio
Codec ID : A_DTS
Duration : 1 h 36 min
Bit rate mode : Variable
Bit rate : 4 206 kb/s
Channel(s) : 6 channels
Channel layout : C L R Ls Rs LFE
Sampling rate : 48.0 kHz
Frame rate : 93.750 FPS (512 SPF)
Bit depth : 24 bits
Compression mode : Lossless
Stream size : 2.85 GiB (13%)
Language : English
Default : No
Forced : No

Text #1
ID : 5
Format : UTF-8
Codec ID : S_TEXT/UTF8
Codec ID/Info : UTF-8 Plain Text
Duration : 1 h 31 min
Bit rate : 54 b/s
Count of elements : 1197
Stream size : 36.4 KiB (0%)
Title : Повні iTunes
Language : English
Default : No
Forced : No

Text #2
ID : 6
Format : UTF-8
Codec ID : S_TEXT/UTF8
Codec ID/Info : UTF-8 Plain Text
Duration : 1 h 33 min
Bit rate : 56 b/s
Count of elements : 1331
Stream size : 38.9 KiB (0%)
Title : Повні, SDH, iTunes
Language : English
Default : No
Forced : No

Menu
00:00:00.000 : en:Main Titles
00:04:28.979 : en:Hungry for Action
00:07:32.979 : en:Madison School
00:10:45.979 : en:The Green Boys
00:23:29.979 : en:The House of Payne
00:26:45.979 : en:A Killer Cupcake
00:33:16.979 : en:The Dress Parade
00:41:24.979 : en:The Giant Killer
00:48:32.979 : en:A Black Op
00:50:28.979 : en:A Bedtime Story
00:57:28.979 : en:Cuttin' a Rug
00:58:50.979 : en:A Wellington Beef
01:05:24.979 : en:Parent's Day
01:17:28.979 : en:Military Games
01:24:00.979 : en:Payne's Boys
01:27:17.979 : en:Bustin' a Move
01:31:01.979 : en:The Cadet's Pet
01:33:25.979 : en:End Titles
Скріншоти





Джерело: & Інше
Особиста оцінка: 8 - мені сподобалося
Майор Пейн / Major Payne (1995) Remux 1080p 2xUkr/Eng | Sub Eng Майор Пейн / Major Payne (1995) Remux 1080p 2xUkr/Eng | Sub Eng


Золотий реліз (завантажене не впливає на рейтинг)
 Трекер:    Зареєстрований   

Завантажити / скачати фільм українською



відео для новачків



 Зареєстрований:   2019-02-06 15:52
 Розмір:   22.01 GB 
 Оцінка фільму:   9.4/10 (Голосів: 15)
   
Інші релізи
   Майор Пейн / Major Payne (1995) 720p 2xUkr/Eng | Sub Eng staf777  2 / 0   6.78 GB   2019-02-06 14:48 
   Майор Пейн / Major Payne (1995) 2xUkr/Eng Arsenfpu  3 / 0   1.96 GB   2019-01-14 10:35 
   Майор Пейн / Major Payne (1995) AVC 2xUkr/Eng | Sub Eng drop_plz  5 / 0   2.33 GB   2018-10-17 07:53 
   Майор Пейн / Major Payne (1995) 1080p Ukr/Eng Bod_zik99  4 / 0   4.05 GB   2016-09-22 15:30 
Space707 
Попереджень: 1
Попереджень: 1 


З нами з: 20.01.15
Востаннє: 28.03.19
Повідомлень: 103

2018-06-16 13:05  
Фільм бомба! Якщо хтось не бачив, то рекомендую.
EvGaS 
Відео Гуртом - субтитрування
Відео Гуртом - субтитрування


З нами з: 27.02.12
Востаннє: 19.04.19
Повідомлень: 5599

2019-02-07 05:50  
Space707 написано:
Фільм бомба! Якщо хтось не бачив, то рекомендую.

Навіть не стільки бомба, скільки вже класика. Та й для загальної кіноосвіти (якщо така є) його варто знати, бо з нього пішов не один вічний «мем».
Можете пошукати «чумацького возика» на відеосервісах. Wink (1)

staf777 
Відео Гуртом - підтримка та поширення
Відео Гуртом - підтримка та поширення


З нами з: 16.11.16
Востаннє: 18.04.19
Повідомлень: 2258

2019-02-07 09:46  
Додав доріжку від 
Ваш часовий пояс: GMT + 2 Години

Нова тема   Відповісти