Майор Пейн / Major Payne (1995) 720p 2xUkr/Eng | Sub Eng

Нові коментарі

Нова тема   Відповісти
Автор Повідомлення
staf777 
Відео Гуртом - підтримка та поширення
Відео Гуртом - підтримка та поширення


З нами з: 16.11.16
Востаннє: 20.04.19
Повідомлень: 2267

2018-06-16 11:42  
Майор Пейн / Major Payne (1995) 720p 2xUkr/Eng | Sub Eng

Майор Пейн / Major Payne (1995) 720p 2xUkr/Eng | Sub Eng


Жанр: комедія
Країна: США



Кінокомпанія: Universal Pictures
Режисер: Нік Касл
Актори: Деймон Вайанс, Майкл Айронсайд, Керін Парсонс, Росс Бікелл, Скотт Бігелоу, Йода Блейр, Орландо Браун, Пейтон Чессон-Фол, Стівен Коулмен, Марк Конуей, Девід ДіХарт, Джошуа Тодд Дівелі

Сюжет:
Майору ніяк не присвоять звання полковника з однієї причини - він уміє тільки вбивати, ні на що інше він просто не здатний. Його відправляють у відставку. Робота в поліції йому не підходить, і наш герой вмирає від нудьги в одному з номерів готелю.
Несподівано він отримує пропозицію стати інструктором по військовій підготовці у військовому навчальному закладі. Про те, як складуться відносини жорстокого солдата-вбивці з юними хлопцями і однією вельми привабливою викладачкою розповідає ця весела комедія, що містить багацько кумедних жартів і смішних ситуацій.


Тривалість: 01:36:59
Якість: 720p
Відео:
кодек:
розмір кадру: 1280x692
бітрейт: 8978 кб/с

Аудіо # 1:
мова: українська
переклад: багатоголосий закадровий
кодек: 2.0
бітрейт: 192 кб/с

Аудіо # 2:
мова: українська
переклад: багатоголосий закадровий
кодек: 2.0
бітрейт: 192 кб/с

Аудіо # 3:
мова: англійська
переклад: оригінал
кодек: 5.1
бітрейт: 640 кб/с

Субтитри # 1-2:
мова: англійська
тип: програмні (м'які)
формат: *.srt
Info
General
Unique ID : 230098741853561226486525939085661863954 (0xAD1B67DC9EFDC30C0E478D7C40768012)
Complete name : F:\Комедія\Major Payne (1995) 720p [2xUkr][Eng][Sub Eng][Hurtom].
Format :
Format version : Version 4
File size : 6.78 GiB
Duration : 1 h 36 min
Overall bit rate : 10.0 Mb/s
Movie name : Major Payne (1995) 720p [2xUkr][Eng][Sub Eng][Hurtom]
Encoded date : UTC 2019-02-06 11:19:36
Writing application : v30.1.0 ('Forever And More') 64-bit
Writing library : libebml v1.3.6 + v1.4.9
Cover : Yes
Attachments : cover.jpg

Video
ID : 1
Format : AVC
Format/Info : Advanced Video Codec
Format profile : [email protected]
Format settings : CABAC / 9 Ref Frames
Format settings, CABAC : Yes
Format settings, ReFrames : 9 frames
Codec ID : V_MPEG4/ISO/AVC
Duration : 1 h 36 min
Bit rate : 8 978 kb/s
Width : 1 280 pixels
Height : 692 pixels
Display aspect ratio : 1.85:1
Frame rate mode : Constant
Frame rate : 23.976 (24000/1001) FPS
Color space : YUV
Chroma subsampling : 4:2:0
Bit depth : 8 bits
Scan type : Progressive
Bits/(Pixel*Frame) : 0.423
Stream size : 6.08 GiB (90%)
Title : Major Payne (1995) 720p -=VietHD=-
Writing library : core 148 r2762.20 f1807b7 VietHD_Custom
Encoding settings : cabac=1 / ref=9 / deblock=1:-3:-3 / analyse=0x3:0x133 / me=umh / subme=10 / psy=1 / fade_compensate=0.00 / psy_rd=1.10:0.00 / mixed_ref=1 / me_range=24 / chroma_me=1 / trellis=2 / 8x8dct=1 / cqm=0 / deadzone=21,11 / fast_pskip=0 / chroma_qp_offset=-2 / threads=12 / lookahead_threads=2 / sliced_threads=0 / nr=0 / decimate=0 / interlaced=0 / bluray_compat=0 / constrained_intra=0 / fgo=0 / bframes=9 / b_pyramid=2 / b_adapt=2 / b_bias=0 / direct=3 / weightb=1 / open_gop=0 / weightp=2 / keyint=250 / keyint_min=23 / scenecut=40 / intra_refresh=0 / rc_lookahead=60 / rc=crf / mbtree=0 / crf=19.0000 / qcomp=0.65 / qpmin=0:0:0 / qpmax=69:69:69 / qpstep=4 / vbv_maxrate=62500 / vbv_bufsize=78125 / crf_max=0.0 / nal_hrd=none / filler=0 / ip_ratio=1.30 / pb_ratio=1.20 / aq=3:0.70 / aq-sensitivity=10.00 / aq-factor=1.00:1.00:1.00 / aq2=0 / aq3=0
Language : English
Default : Yes
Forced : No
Color range : Limited
Matrix coefficients : BT.709

Audio #1
ID : 2
Format : AC-3
Format/Info : Audio Coding 3
Commercial name : Dolby Digital
Codec ID : A_AC3
Duration : 1 h 36 min
Bit rate mode : Constant
Bit rate : 192 kb/s
Channel(s) : 2 channels
Channel layout : L R
Sampling rate : 48.0 kHz
Frame rate : 31.250 FPS (1536 SPF)
Bit depth : 16 bits
Compression mode : Lossy
Stream size : 133 MiB (2%)
Title : [UA-MVO]
Language : Ukrainian
Service kind : Complete Main
Default : Yes
Forced : Yes

Audio #2
ID : 3
Format : AC-3
Format/Info : Audio Coding 3
Commercial name : Dolby Digital
Codec ID : A_AC3
Duration : 1 h 36 min
Bit rate mode : Constant
Bit rate : 192 kb/s
Channel(s) : 2 channels
Channel layout : L R
Sampling rate : 48.0 kHz
Frame rate : 31.250 FPS (1536 SPF)
Bit depth : 16 bits
Compression mode : Lossy
Stream size : 133 MiB (2%)
Title : CINE+
Language : Ukrainian
Service kind : Complete Main
Default : No
Forced : No

Audio #3
ID : 4
Format : AC-3
Format/Info : Audio Coding 3
Commercial name : Dolby Digital
Codec ID : A_AC3
Duration : 1 h 36 min
Bit rate mode : Constant
Bit rate : 640 kb/s
Channel(s) : 6 channels
Channel layout : L R C LFE Ls Rs
Sampling rate : 48.0 kHz
Frame rate : 31.250 FPS (1536 SPF)
Bit depth : 16 bits
Compression mode : Lossy
Stream size : 444 MiB (6%)
Language : English
Service kind : Complete Main
Default : No
Forced : No

Text #1
ID : 5
Format : UTF-8
Codec ID : S_TEXT/UTF8
Codec ID/Info : UTF-8 Plain Text
Duration : 1 h 31 min
Bit rate : 54 b/s
Count of elements : 1197
Stream size : 36.4 KiB (0%)
Language : English
Default : No
Forced : No

Text #2
ID : 6
Format : UTF-8
Codec ID : S_TEXT/UTF8
Codec ID/Info : UTF-8 Plain Text
Duration : 1 h 33 min
Bit rate : 56 b/s
Count of elements : 1331
Stream size : 38.9 KiB (0%)
Title : SDH
Language : English
Default : No
Forced : No

Menu
00:00:00.000 : en:Main Titles
00:04:28.979 : en:Hungry for Action
00:07:32.979 : en:Madison School
00:10:45.979 : en:The Green Boys
00:23:29.979 : en:The House of Payne
00:26:45.979 : en:A Killer Cupcake
00:33:16.979 : en:The Dress Parade
00:41:24.979 : en:The Giant Killer
00:48:32.979 : en:A Black Op
00:50:28.979 : en:A Bedtime Story
00:57:28.979 : en:Cuttin' a Rug
00:58:50.979 : en:A Wellington Beef
01:05:24.979 : en:Parent's Day
01:17:28.979 : en:Military Games
01:24:00.979 : en:Payne's Boys
01:27:17.979 : en:Bustin' a Move
01:31:01.979 : en:The Cadet's Pet
01:33:25.979 : en:End Titles
Скріншоти




Джерело: & Інше
Особиста оцінка: 8 - мені сподобалося
Майор Пейн / Major Payne (1995) 720p 2xUkr/Eng | Sub Eng Майор Пейн / Major Payne (1995) 720p 2xUkr/Eng | Sub Eng


Срібний реліз (на рейтинг впливає 50% завантаженого)
 Трекер:    Зареєстрований   

Завантажити / скачати фільм українською



відео для новачків



 Зареєстрований:   2019-02-06 14:48
 Розмір:   6.78 GB 
 Оцінка фільму:   9.3/10 (Голосів: 14)
   
Інші релізи
   Майор Пейн / Major Payne (1995) Remux 1080p 2xUkr/Eng | Sub Eng staf777  1 / 0   22.01 GB   2019-02-06 15:52 
   Майор Пейн / Major Payne (1995) 2xUkr/Eng Arsenfpu  1 / 0   1.96 GB   2019-01-14 10:35 
   Майор Пейн / Major Payne (1995) AVC 2xUkr/Eng | Sub Eng drop_plz  8 / 0   2.33 GB   2018-10-17 07:53 
   Майор Пейн / Major Payne (1995) 1080p Ukr/Eng Bod_zik99  4 / 0   4.05 GB   2016-09-22 15:30 
staf777 
Відео Гуртом - підтримка та поширення
Відео Гуртом - підтримка та поширення


З нами з: 16.11.16
Востаннє: 20.04.19
Повідомлень: 2267

2019-02-06 14:51  
Додав доріжку від 
Ваш часовий пояс: GMT + 2 Години

Нова тема   Відповісти