Таємниця щурів (Секрет НІП) / The Secret of NIMH (1982) 1080p Ukr/Eng | Sub Ukr

Нові коментарі

Нова тема   Відповісти
Автор Повідомлення
Anonymous 







2018-06-15 22:45  
Таємниця щурів (Секрет НІП) / The Secret of NIMH (1982) 1080p Ukr/Eng | Sub Ukr

Таємниця щурів (Секрет НІП) / The Secret of NIMH (1982) 1080p Ukr/Eng | Sub Ukr


Жанр: анімація, сімейний, фентезі, драма
Країна: США



Кінокомпанія: Aurora, MGM
Режисер: Дон Блат / Don Bluth
Ролі озвучують: Дерек Джекобі / Derek Jacobi як Нікодемус (голос), Елізабет Хартман / Elizabeth Hartman як пані Брізбі (голос), Артур Малет / Arthur Malet як пан Ейджес (голос), Дом ДеЛуіз / Dom DeLuise як Джеремі (голос), Герміона Бедделі / Hermione Baddeley як тьотя Землерийка (голос), Шенен Доерті / Shannen Doherty як Тереза (голос), Уіл Віатон / Wil Wheaton як Мартін (голос), Джоді Гікс / Jodi Hicks як Синтія (голос), Ян Фрід / Ian Fried як Тімоті (голос), Джон Керрадайн / John Carradine як Великий Сич (голос), Пітер Штарус / Peter Strauss як Джастін (голос), Пол Шенар / Paul Shenar як Дженнер (голос)

Українською ролі озвучували: Дмитро Завадський та Юлія Перенчук.

Сюжет:
Польова миша пані Брізбі повинна перевезти власну родину у безпечне місце до того, як фермер почне оранку, на якому вони живуть, але її син Тіммі не може виходити на вулицю, через пневмонію. Вона звертається за допомогою до дуже розумних щурів, які побудували підземне суспільство у кущі роз біля ферми. Щури, яких очолює мудрий Нікодемус, вирішують допомогти перемістити будиночок пані Брізбі, щоб відплатити борг вдячності перед її померлим чоловіком. Яле все ускладнюється, коли де-хто із щурів вирішують, що час обрати нового лідера замість Нікодимуса.


Тривалість: 01:22:45
Якість: 1080p
Відео:
кодек:
розмір кадру: 1920 х 1040
бітрейт: 7932 кб/с

Аудіо # 1:
мова: українська
переклад: двоголосий закадровий |
кодек: 2.0
бітрейт: 192 кб/с

Аудіо # 2:
мова: англійська
переклад: оригінал
кодек: 5.1
бітрейт: 1 509 кб/с

Субтитри:
мова: українська (скачати)
тип: програмні (м'які)
формат: *.srt
Info
General
Unique ID : 178116807944478172732242293238236512491 (0x86000CA59A3F70EB8F2F5270B00100EB)
Format :
Format version : Version 4 / Version 2
File size : 5.57 GiB
Duration : 1 h 22 min
Overall bit rate : 9 633 kb/s
Movie name : The.Secret.of.NIMH.1982.1080p.BluRay..-FGT
Encoded date : UTC 2018-06-15 20:22:07
Writing application : v6.1.0 ('Old Devil') built on Mar 4 2013 09:10:42
Writing library : libebml v1.3.0 + v1.4.0

Video
ID : 1
Format : AVC
Format/Info : Advanced Video Codec
Format profile : [email protected]
Format settings, CABAC : Yes
Format settings, ReFrames : 4 frames
Codec ID : V_MPEG4/ISO/AVC
Duration : 1 h 22 min
Bit rate : 7 932 kb/s
Width : 1 920 pixels
Height : 1 040 pixels
Display aspect ratio : 1.85:1
Frame rate mode : Constant
Frame rate : 23.976 FPS
Color space : YUV
Chroma subsampling : 4:2:0
Bit depth : 8 bits
Scan type : Progressive
Bits/(Pixel*Frame) : 0.166
Stream size : 4.47 GiB (80%)
Writing library : core 114 r1913 5fd3dce
Encoding settings : cabac=1 / ref=4 / deblock=1:0:0 / analyse=0x3:0x133 / me=umh / subme=8 / psy=1 / psy_rd=1.00:0.00 / mixed_ref=1 / me_range=16 / chroma_me=1 / trellis=1 / 8x8dct=1 / cqm=0 / deadzone=21,11 / fast_pskip=0 / chroma_qp_offset=-2 / threads=6 / sliced_threads=0 / nr=0 / decimate=1 / interlaced=0 / constrained_intra=0 / bframes=3 / b_pyramid=2 / b_adapt=1 / b_bias=0 / direct=1 / weightb=1 / open_gop=0 / weightp=2 / keyint=240 / keyint_min=24 / scenecut=40 / intra_refresh=0 / rc_lookahead=40 / rc=2pass / mbtree=1 / bitrate=7932 / ratetol=1.0 / qcomp=0.60 / qpmin=0 / qpmax=69 / qpstep=4 / cplxblur=20.0 / qblur=0.5 / ip_ratio=1.40 / aq=1:1.00
Language : English
Default : Yes
Forced : No

Audio #1
ID : 2
Format : AC-3
Format/Info : Audio Coding 3
Format settings, Endianness : Big
Codec ID : A_AC3
Duration : 1 h 22 min
Bit rate mode : Constant
Bit rate : 192 kb/s
Channel(s) : 2 channels
Channel positions : Front: L R
Sampling rate : 48.0 kHz
Frame rate : 31.250 FPS (1536 spf)
Bit depth : 16 bits
Compression mode : Lossy
Stream size : 114 MiB (2%)
Title : Ukr
Language : Ukrainian
Service kind : Complete Main
Default : Yes
Forced : Yes

Audio #2
ID : 3
Format :
Format/Info : Digital Theater Systems
Mode : 16
Format settings, Endianness : Big
Codec ID : A_DTS
Duration : 1 h 22 min
Bit rate mode : Constant
Bit rate : 1 509 kb/s
Channel(s) : 2 channels
Channel positions : Front: L R
Sampling rate : 48.0 kHz
Frame rate : 93.750 FPS (512 spf)
Bit depth : 24 bits
Compression mode : Lossy
Stream size : 893 MiB (16%)
Language : English
Default : No
Forced : No
Скріншоти





За звукову доріжку дякуємо пану gig_Panas
За субтитри подяка п. MutuLI
Особиста подяка пану denixx за надану матеріальну допомогу на підтримку цього і майбутніх релізів.

Джерело:


Срібний реліз (на рейтинг впливає 50% завантаженого)
 Трекер:    Зареєстрований   

Завантажити / скачати мультфільм українською



відео для новачків



 Зареєстрований:   2018-06-15 22:45
 Розмір:   5.57 GB 
 Оцінка мультфільму:   10/10 (Голосів: 5)
   
Ваш часовий пояс: GMT + 2 Години

Нова тема   Відповісти