Хлопчик-Фантом / Phantom Boy (2015) 720p Ukr/Fre

Нові коментарі

Нова тема   Відповісти
Автор Повідомлення
Anonymous 







2018-06-15 17:20  
Хлопчик-Фантом / Phantom Boy (2015) 720p Ukr/Fre

Хлопчик-Фантом / Phantom Boy (2015) 720p Ukr/Fre


Жанр: анімація, фентезі
Країна: Франція, Бельгія



Кінокомпанія: Folimage, Lunanime, France 3 Cinéma, Rhône-Alpes Cinéma
Режисер: Жан-Луп Фелісіолі, Ален Ганьоль
Ролі озвучують: Едуар Баер — Алекс, Жан-П'єр Мар'єль — людина з розбитим обличчям, Одрі Тоту — Марі

Сюжет:
Лео, 11-річний хлопчик з Нью-Йорка, є незвичайною дитиною: він може ставати невидимим і літати крізь стіни. Він дружить з поліцейським Алексом, який тимчасово прикутий до інвалідного крісла через таємничого гангстера. Лео в повітрі і Алекс на землі формують екстраординарну команду, яка захищає журналістку Марі, і рятує Нью-Йорк від руйнування.


Тривалість: 01:24:59
Якість:
Відео:
кодек:
розмір кадру: 1280 х 688
бітрейт: 5854 кб/с

Аудіо:
мова: українська
переклад: двоголосий закадровий
кодек: 2.0
бітрейт: 192 кб/с
Озвучення
Максим Михайличенко та Ірина Руденко
Аудіо:
мова: французька
переклад: оригінал
кодек: 5.1
бітрейт: 448 кб/с
Скріншоти








МедіаІнфо
Complete name : E:\Phantom.Boy.2015.LIMITED.720p[Ukr.Fre].
Format :
Format version : Version 4 / Version 2
File size : 3.86 GiB
Duration : 1 h 24 min
Overall bit rate : 6 498 kb/s
Encoded date : UTC 2018-06-15 22:20:43
Writing application : v22.0.0 ('At The End Of The World') 64-bit
Writing library : libebml v1.3.5 + v1.4.8

Video
ID : 1
Format : AVC
Format/Info : Advanced Video Codec
Format profile : [email protected]
Format settings, CABAC : Yes
Format settings, RefFrames : 5 frames
Codec ID : V_MPEG4/ISO/AVC
Duration : 1 h 24 min
Bit rate : 5 854 kb/s
Width : 1 280 pixels
Height : 688 pixels
Display aspect ratio : 1.85:1
Frame rate mode : Constant
Frame rate : 23.976 (24000/1001) FPS
Color space : YUV
Chroma subsampling : 4:2:0
Bit depth : 8 bits
Scan type : Progressive
Bits/(Pixel*Frame) : 0.277
Stream size : 3.48 GiB (90%)
Writing library : core 148 r2705 3f5ed56
Encoding settings : cabac=1 / ref=5 / deblock=1:-3:-3 / analyse=0x3:0x113 / me=umh / subme=8 / psy=1 / psy_rd=1.00:0.00 / mixed_ref=1 / me_range=16 / chroma_me=1 / trellis=1 / 8x8dct=1 / cqm=0 / deadzone=21,11 / fast_pskip=1 / chroma_qp_offset=-2 / threads=12 / lookahead_threads=2 / sliced_threads=0 / nr=0 / decimate=1 / interlaced=0 / bluray_compat=0 / constrained_intra=0 / bframes=3 / b_pyramid=2 / b_adapt=2 / b_bias=0 / direct=3 / weightb=1 / open_gop=0 / weightp=2 / keyint=240 / keyint_min=24 / scenecut=40 / intra_refresh=0 / rc_lookahead=50 / rc=2pass / mbtree=1 / bitrate=5854 / ratetol=1.0 / qcomp=0.60 / qpmin=0 / qpmax=69 / qpstep=4 / cplxblur=20.0 / qblur=0.5 / vbv_maxrate=62500 / vbv_bufsize=78125 / nal_hrd=none / filler=0 / ip_ratio=1.40 / aq=1:1.00
Default : Yes
Forced : No

Audio #1
ID : 2
Format : AC-3
Format/Info : Audio Coding 3
Format settings, Endianness : Big
Codec ID : A_AC3
Duration : 1 h 24 min
Bit rate mode : Constant
Bit rate : 192 kb/s
Channel(s) : 2 channels
Channel positions : Front: L R
Sampling rate : 48.0 kHz
Frame rate : 31.250 FPS (1536 SPF)
Bit depth : 16 bits
Compression mode : Lossy
Delay relative to video : -417 ms
Stream size : 117 MiB (3%)
Title : Двоголосий закадровий [Oll.tv]
Language : Ukrainian
Service kind : Complete Main
Default : Yes
Forced : No

Audio #2
ID : 3
Format : AC-3
Format/Info : Audio Coding 3
Format settings, Endianness : Big
Codec ID : A_AC3
Duration : 1 h 24 min
Bit rate mode : Constant
Bit rate : 448 kb/s
Channel(s) : 6 channels
Channel positions : Front: L C R, Side: L R, LFE
Sampling rate : 48.0 kHz
Frame rate : 31.250 FPS (1536 SPF)
Bit depth : 16 bits
Compression mode : Lossy
Delay relative to video : -208 ms
Stream size : 272 MiB (7%)
Title : Оригінал
Language : French
Service kind : Complete Main
Default : No
Forced : No
Подяка: Electroz за синхронізацію та igor911 за знайдений ріп.
Джерело:
Особиста оцінка: 8/10 чудова історія та непоганий музичний супровід.


 Трекер:    Зареєстрований   

Завантажити / скачати мультфільм українською



відео для новачків



 Зареєстрований:   2018-06-16 00:26
 Розмір:   3.86 GB 
 Оцінка мультфільму:   9.8/10 (Голосів: 5)
   
Інші релізи
   Хлопчик-Фантом / Phantom Boy (2015) AVC leicheman  1 / 0   1.38 GB   2018-06-16 08:18 
krigg070 
Відео Гуртом - фільмокрай
Відео Гуртом - фільмокрай


З нами з: 29.10.14
Востаннє: 02.03.21
Повідомлень: 1977

2020-11-09 00:05  
5.1 дорога - https://fex.net/uk/s/rpd94k9
Ваш часовий пояс: GMT + 2 Години

Нова тема   Відповісти