Незнайомці: Жорстокі ігри / The Strangers: Prey at Night (2018) 1080p H.265 Ukr/Eng | Sub Eng

Нові коментарі

Нова тема   Відповісти
Останній раз роздавалося coltojkee (2019-11-20)
Автор Повідомлення
ukr_anonymous 
Забанено
Забанено


З нами з: 17.04.18
Востаннє: 17.11.19
Повідомлень: 233

2018-06-15 15:03  
Незнайомці: Жорстокі ігри / The Strangers: Prey at Night (2018) 1080p H.265 Ukr/Eng | Sub Eng

Незнайомці: Жорстокі ігри / The Strangers: Prey at Night (2018) 1080p H.265 Ukr/Eng | Sub Eng


Жанр: жахи
Країна: США



Кінокомпанія: Thefyzz
Режисер: Йоханнес Робертс
Актори: Крістіна Гендрікс, Бейлі Медісон, Мартін Гендерсон, Льюїс Пуллман, Престон Садлеїр, Емма Белломі, Деміен Маффей, Ліа Енслін, Ліа Робертс, Гебріел А. Бірн та інші

Сюжет:
Подружжя Сінді (Крістіна Хендрікс) та Майк (Мартін Хендерсон) разом зі своїми дорослими дітьми Кінсі (Бейлі Медісон) та Люком (Льюїс Пуллман) вирушають у подорож, аби побути разом. Вони запланували зупинитися у трейлерному парку. Тут же мають зустрітися зі своїми родичами. Однак відпочити їм не судилося. Одразу по приїзді біля їхнього трейлера з’являються троє людей у масках. І наміри незнайомців очевидні – вони розгортають жорстоку гру з членами родини.


Тривалість: 01:25:38
Якість:
Відео:
кодек: H.265 (HEVC)
розмір кадру: 1920 х 808
бітрейт: 3 547 кб/с
бітова глибина: 10 біт
Увага! Перед завантаженням переконайтесь, що ваш пристрій відтворення (та/або ПЗ) підтримує H.265 (HEVC)

Аудіо # 1:
мова: українська | студія AAA-Sound
переклад: професійний дубльований
кодек: 2.0
бітрейт: 192 кб/с

Аудіо # 2:
мова: англійська
переклад: оригінал
кодек: 5.1
бітрейт: 384 кб/с

Субтитри # 1-2:
мова: англійська (Full, SHD)
тип: програмні (м'які)
формат: *.srt
Info
General
Unique ID : 194661079831753790378077219948303993708 (0x92725C3A5BA7EBF634FB6FEBD8A3CB6C)
Complete name : E:\video\The Strangers - Prey at Night (2018) 1080p H.265 [UKR_ENG].
Format :
Format version : Version 4 / Version 2
File size : 2.47 GiB
Duration : 1 h 25 min
Overall bit rate : 4 125 kb/s
Movie name : The Strangers: Prey at Night
Encoded date : UTC 2018-06-13 06:53:39
Writing application : v22.0.0 ('At The End Of The World') 64-bit
Writing library : libebml v1.3.5 + v1.4.8
Cover : Yes
Attachments : cover.jpg

Video
ID : 1
Format : HEVC
Format/Info : High Efficiency Video Coding
Format profile : Main [email protected]@Main
Codec ID : V_MPEGH/ISO/HEVC
Duration : 1 h 25 min
Bit rate : 3 547 kb/s
Width : 1 920 pixels
Height : 808 pixels
Display aspect ratio : 2.40:1
Frame rate mode : Constant
Frame rate : 23.976 (24000/1001) FPS
Color space : YUV
Chroma subsampling : 4:2:0
Bit depth : 10 bits
Bits/(Pixel*Frame) : 0.095
Stream size : 2.12 GiB (86%)
Writing library : x265 2.8+1-478bfe2b7673:[Windows][GCC 7.3.0][64 bit] 10bit
Encoding settings : cpuid=1111039 / frame-threads=3 / numa-pools=8 / wpp / no-pmode / no-pme / no-psnr / no-ssim / log-level=2 / input-csp=1 / input-res=1920x808 / interlace=0 / total-frames=123186 / level-idc=0 / high-tier=1 / uhd-bd=0 / ref=4 / no-allow-non-conformance / no-repeat-headers / annexb / no-aud / no-hrd / info / hash=0 / no-temporal-layers / open-gop / min-keyint=23 / keyint=250 / gop-lookahead=0 / bframes=4 / b-adapt=2 / b-pyramid / bframe-bias=0 / rc-lookahead=25 / lookahead-slices=4 / scenecut=40 / radl=0 / no-intra-refresh / ctu=64 / min-cu-size=8 / rect / no-amp / max-tu-size=32 / tu-inter-depth=1 / tu-intra-depth=1 / limit-tu=0 / rdoq-level=2 / dynamic-rd=0.00 / no-ssim-rd / signhide / no-tskip / nr-intra=0 / nr-inter=0 / no-constrained-intra / strong-intra-smoothing / max-merge=3 / limit-refs=3 / limit-modes / me=3 / subme=3 / merange=57 / temporal-mvp / weightp / no-weightb / no-analyze-src-pics / deblock=0:0 / sao / no-sao-non-deblock / rd=4 / no-early-skip / rskip / no-fast-intra / no-tskip-fast / no-cu-lossless / no-b-intra / no-splitrd-skip / rdpenalty=0 / psy-rd=2.00 / psy-rdoq=1.00 / no-rd-refine / no-lossless / cbqpoffs=0 / crqpoffs=0 / rc=crf / crf=18.0 / qcomp=0.60 / qpstep=4 / stats-write=0 / stats-read=0 / ipratio=1.40 / pbratio=1.30 / aq-mode=3 / aq-strength=1.00 / cutree / zone-count=0 / no-strict-cbr / qg-size=32 / no-rc-grain / qpmax=69 / qpmin=0 / no-const-vbv / sar=0 / overscan=0 / videoformat=5 / range=0 / colorprim=2 / transfer=2 / colormatrix=2 / chromaloc=0 / display-window=0 / max-cll=0,0 / min-luma=0 / max-luma=1023 / log2-max-poc-lsb=8 / vui-timing-info / vui-hrd-info / slices=1 / no-opt-qp-pps / no-opt-ref-list-length-pps / no-multi-pass-opt-rps / scenecut-bias=0.05 / no-opt-cu-delta-qp / aq-motion / no-hdr / no-hdr-opt / no-dhdr10-opt / no-idr-recovery-sei / analysis-reuse-level=5 / scale-factor=0 / refine-intra=0 / refine-inter=0 / refine-mv=0 / no-limit-sao / ctu-info=0 / no-lowpass-dct / refine-mv-type=0 / copy-pic=1 / max-ausize-factor=1.0 / no-dynamic-refine / no-single-sei
Default : Yes
Forced : No

Audio #1
ID : 2
Format : AC-3
Format/Info : Audio Coding 3
Codec ID : A_AC3
Duration : 1 h 25 min
Bit rate mode : Constant
Bit rate : 192 kb/s
Channel(s) : 2 channels
Channel positions : Front: L R
Sampling rate : 48.0 kHz
Frame rate : 31.250 FPS (1536 SPF)
Bit depth : 16 bits
Compression mode : Lossy
Stream size : 118 MiB (5%)
Title : 2.0 @ 192 kbps
Language : Ukrainian
Service kind : Complete Main
Default : Yes
Forced : Yes

Audio #2
ID : 3
Format : AC-3
Format/Info : Audio Coding 3
Codec ID : A_AC3
Duration : 1 h 25 min
Bit rate mode : Constant
Bit rate : 384 kb/s
Channel(s) : 6 channels
Channel positions : Front: L C R, Side: L R, LFE
Sampling rate : 48.0 kHz
Frame rate : 31.250 FPS (1536 SPF)
Bit depth : 16 bits
Compression mode : Lossy
Stream size : 235 MiB (9%)
Title : 5.1 @ 384 kbps
Language : English
Service kind : Complete Main
Default : No
Forced : No

Text #1
ID : 4
Format : UTF-8
Codec ID : S_TEXT/UTF8
Codec ID/Info : UTF-8 Plain Text
Duration : 1 h 13 min
Bit rate : 26 b/s
Count of elements : 561
Stream size : 14.1 KiB (0%)
Title : Full
Language : English
Default : No
Forced : No

Text #2
ID : 5
Format : UTF-8
Codec ID : S_TEXT/UTF8
Codec ID/Info : UTF-8 Plain Text
Duration : 1 h 16 min
Bit rate : 43 b/s
Count of elements : 917
Stream size : 24.5 KiB (0%)
Title : SHD
Language : English
Default : No
Forced : No

Menu
00:00:00.000 : en:Chapter 01
00:04:59.882 : en:Chapter 02
00:08:49.153 : en:Chapter 03
00:12:58.110 : en:Chapter 04
00:17:23.917 : en:Chapter 05
00:21:53.770 : en:Chapter 06
00:24:53.909 : en:Chapter 07
00:30:15.104 : en:Chapter 08
00:34:45.208 : en:Chapter 09
00:40:01.899 : en:Chapter 10
00:44:48.727 : en:Chapter 11
00:49:48.443 : en:Chapter 12
00:53:12.606 : en:Chapter 13
00:56:55.995 : en:Chapter 14
00:58:20.705 : en:Chapter 15
01:00:37.884 : en:Chapter 16
01:05:21.709 : en:Chapter 17
01:09:17.528 : en:Chapter 18
01:14:59.036 : en:Chapter 19
01:18:07.349 : en:Chapter 20
Скріншоти



Джерело:
Особиста оцінка: 6 - третій сорт - не брак

2018-07-02 - Виправив проблему з розсинхроном


 Трекер:    Зареєстрований   

Завантажити / скачати фільм українською



відео для новачків



 Зареєстрований:   2018-06-29 15:41
 Розмір:   2.47 GB 
 Оцінка фільму:   9/10 (Голосів: 1)
   
hetzendorf 
Забанено
Забанено


З нами з: 23.07.15
Востаннє: 18.09.20
Повідомлень: 2876

2018-06-25 22:45  
Чому розсинхрон жахливий, ви знущаєтесь, чи що? Викинув сабж, качаю іншу версію!
ukr_anonymous 
Забанено
Забанено


З нами з: 17.04.18
Востаннє: 17.11.19
Повідомлень: 233

2018-06-26 11:47  
В когось ще є така проблема?
Aracan 
Новенький


З нами з: 09.06.17
Востаннє: 17.09.20
Повідомлень: 1

2018-06-26 22:46  
Так, на жаль є така проблема. Дивитись можна якщо зробити затримку звуку в плеєрі. Треба встановити 24 секунди.
bot 
робот


З нами з: 30.09.07
Востаннє: 26.05.05
Повідомлень: 25557

2018-06-26 23:30  
Тему перенесено з Фільми в HD до форуму Неоформлене відео

Причина перенесення: скарги на розсинхрон
igor911

bot 
робот


З нами з: 30.09.07
Востаннє: 26.05.05
Повідомлень: 25557

2018-07-02 21:50  
Тему перенесено з Неоформлене відео до форуму Фільми в HD


11FrYkT

ukr_anonymous 
Забанено
Забанено


З нами з: 17.04.18
Востаннє: 17.11.19
Повідомлень: 233

2018-07-02 22:11  
Відео перезалито, розсинхрону більше немає!

Ваш часовий пояс: GMT + 2 Години

Нова тема   Відповісти