Бурлеск / Burlesque (2010) 1080p H.265 Ukr/Eng | Sub Eng

Нові коментарі

Нова тема   Відповісти
Автор Повідомлення
ukr_anonymous 
Забанено
Забанено


З нами з: 17.04.18
Востаннє: 17.11.19
Повідомлень: 233

2018-06-15 13:52  
Бурлеск / Burlesque (2010) 1080p H.265 Ukr/Eng | Sub Eng

Бурлеск / Burlesque (2010) 1080p H.265 Ukr/Eng | Sub Eng


Жанр: Драма, Мелодрама, Мюзикл
Країна: США



Кінокомпанія: De Line Pictures
Режисер: Стів Ентін
Актори: Крістіна Агілера , Шер , Крістен Белл , Кем Жіганде , Стенлі Туччі , Ерік Дейн , Джуліанна Хаф , Пітер Галлахер , Девід Уолтон

Сюжет:
Американська мрія – підкорити Голівуд. Мало хто знає, як це зробити, навіть маючи мішок таланту за плечима та нестримне бажання обернути на себе світло софітів. У дівчини з забутого Богом містечка вдосталь амбіцій, ентузіазму і здібностей. Для досягнення своєї мети вона вирішила податися в Лос-Анджелес, щоб виявити усю силу свого таланту і характеру. Але найважливіше для неї навіть не успіх, головне – ніколи не зупинятись!


Тривалість: 01:58:58
Якість:
Відео:
кодек: H.265 (HEVC)
розмір кадру: 1920 х 800
бітрейт: 2 389 кб/с
бітова глибина: 10 біт
Увага! Перед завантаженням переконайтесь, що ваш пристрій відтворення (та/або ПЗ) підтримує H.265 (HEVC)

Аудіо # 1:
мова: українська
переклад: професійний дубльований
кодек: 5.1
бітрейт: 384 кб/с

Аудіо # 2:
мова: англійська
переклад: оригінал
кодек: 5.1
бітрейт: 384 кб/с

Субтитри # 1:
мова: англійська
тип: програмні (м'які)
формат: *.srt
Info
General
Unique ID : 108123753249158594643174954895015982017 (0x5157E09DD30B6C336DFA87641690B3C1)
Complete name : E:\video\Burlesque (2010) 1080p H.265 [UKR_ENG].
Format :
Format version : Version 4 / Version 2
File size : 2.63 GiB
Duration : 1 h 58 min
Overall bit rate : 3 160 kb/s
Encoded date : UTC 2018-06-13 09:05:38
Writing application : v22.0.0 ('At The End Of The World') 64-bit
Writing library : libebml v1.3.5 + v1.4.8
Cover : Yes
Attachments : Cover.jpg

Video
ID : 1
Format : HEVC
Format/Info : High Efficiency Video Coding
Format profile : Main [email protected]@Main
Codec ID : V_MPEGH/ISO/HEVC
Duration : 1 h 58 min
Bit rate : 2 389 kb/s
Width : 1 920 pixels
Height : 800 pixels
Display aspect ratio : 2.40:1
Frame rate mode : Constant
Frame rate : 23.976 (24000/1001) FPS
Color space : YUV
Chroma subsampling : 4:2:0
Bit depth : 10 bits
Bits/(Pixel*Frame) : 0.065
Stream size : 1.99 GiB (76%)
Writing library : x265 2.8+12-9cde2c278464:[Windows][MSVC 1914][64 bit] 10bit
Encoding settings : cpuid=1111039 / frame-threads=5 / numa-pools=32,0 / wpp / no-pmode / no-pme / no-psnr / no-ssim / log-level=2 / input-csp=1 / input-res=1920x800 / interlace=0 / total-frames=171144 / level-idc=0 / high-tier=1 / uhd-bd=0 / ref=5 / no-allow-non-conformance / no-repeat-headers / annexb / no-aud / no-hrd / info / hash=0 / no-temporal-layers / open-gop / min-keyint=23 / keyint=250 / gop-lookahead=0 / bframes=8 / b-adapt=2 / b-pyramid / bframe-bias=0 / rc-lookahead=90 / lookahead-slices=0 / scenecut=40 / radl=0 / no-intra-refresh / ctu=64 / min-cu-size=8 / no-rect / no-amp / max-tu-size=32 / tu-inter-depth=1 / tu-intra-depth=1 / limit-tu=0 / rdoq-level=2 / dynamic-rd=0.00 / no-ssim-rd / signhide / no-tskip / nr-intra=0 / nr-inter=0 / no-constrained-intra / no-strong-intra-smoothing / max-merge=3 / limit-refs=3 / limit-modes / me=3 / subme=7 / merange=57 / temporal-mvp / weightp / weightb / no-analyze-src-pics / deblock=-3:-3 / no-sao / no-sao-non-deblock / rd=4 / no-early-skip / no-rskip / no-fast-intra / no-tskip-fast / no-cu-lossless / no-b-intra / no-splitrd-skip / rdpenalty=0 / psy-rd=2.00 / psy-rdoq=1.25 / no-rd-refine / no-lossless / cbqpoffs=0 / crqpoffs=0 / rc=crf / crf=19.5 / qcomp=0.60 / qpstep=4 / stats-write=0 / stats-read=0 / ipratio=1.40 / pbratio=1.30 / aq-mode=3 / aq-strength=0.80 / cutree / zone-count=0 / no-strict-cbr / qg-size=32 / no-rc-grain / qpmax=69 / qpmin=0 / no-const-vbv / sar=0 / overscan=0 / videoformat=5 / range=0 / colorprim=2 / transfer=2 / colormatrix=2 / chromaloc=0 / display-window=0 / max-cll=0,0 / min-luma=0 / max-luma=1023 / log2-max-poc-lsb=8 / vui-timing-info / vui-hrd-info / slices=1 / no-opt-qp-pps / no-opt-ref-list-length-pps / no-multi-pass-opt-rps / scenecut-bias=0.05 / no-opt-cu-delta-qp / aq-motion / no-hdr / no-hdr-opt / no-dhdr10-opt / no-idr-recovery-sei / analysis-reuse-level=5 / scale-factor=0 / refine-intra=0 / refine-inter=0 / refine-mv=0 / no-limit-sao / ctu-info=0 / no-lowpass-dct / refine-mv-type=0 / copy-pic=1 / max-ausize-factor=1.0 / no-dynamic-refine / no-single-sei
Language : English
Default : Yes
Forced : No

Audio #1
ID : 2
Format : AC-3
Format/Info : Audio Coding 3
Codec ID : A_AC3
Duration : 1 h 58 min
Bit rate mode : Constant
Bit rate : 384 kb/s
Channel(s) : 6 channels
Channel positions : Front: L C R, Side: L R, LFE
Sampling rate : 48.0 kHz
Frame rate : 31.250 FPS (1536 SPF)
Bit depth : 16 bits
Compression mode : Lossy
Stream size : 327 MiB (12%)
Title : DUB
Language : Ukrainian
Service kind : Complete Main
Default : Yes
Forced : No

Audio #2
ID : 3
Format : AC-3
Format/Info : Audio Coding 3
Codec ID : A_AC3
Duration : 1 h 58 min
Bit rate mode : Constant
Bit rate : 384 kb/s
Channel(s) : 6 channels
Channel positions : Front: L C R, Side: L R, LFE
Sampling rate : 48.0 kHz
Frame rate : 31.250 FPS (1536 SPF)
Bit depth : 16 bits
Compression mode : Lossy
Stream size : 327 MiB (12%)
Title : Original
Language : English
Service kind : Complete Main
Default : No
Forced : No

Text
ID : 4
Format : UTF-8
Codec ID : S_TEXT/UTF8
Codec ID/Info : UTF-8 Plain Text
Duration : 1 h 51 min
Bit rate : 51 b/s
Count of elements : 1428
Stream size : 42.4 KiB (0%)
Language : English
Default : Yes
Forced : No

Menu
00:00:00.000 : en:Chapter 01
00:06:16.959 : en:Chapter 02
00:15:12.077 : en:Chapter 03
00:25:06.755 : en:Chapter 04
00:30:30.662 : en:Chapter 05
00:37:29.956 : en:Chapter 06
00:45:00.406 : en:Chapter 07
00:51:43.934 : en:Chapter 08
00:58:53.404 : en:Chapter 09
01:04:45.214 : en:Chapter 10
01:12:16.915 : en:Chapter 11
01:20:14.351 : en:Chapter 12
01:28:28.261 : en:Chapter 13
01:34:41.133 : en:Chapter 14
01:41:13.358 : en:Chapter 15
01:47:21.268 : en:Chapter 16
Скріншоти



Джерело:
Особиста оцінка: 0 - не дивився


 Трекер:    Зареєстрований   

Завантажити / скачати фільм українською



відео для новачків



 Зареєстрований:   2018-06-15 13:52
 Розмір:   2.63 GB 
 Оцінка фільму:   8.3/10 (Голосів: 6)
   
Інші релізи
   Бурлеск / Burlesque (2010) AVC Бузьок  2 / 0   1.85 GB   2011-03-19 14:44 
   Бурлеск / Burlesque (2010) Ukr/Eng | Sub Eng karvai0  5 / 0   2.19 GB   2011-03-07 00:34 
   Бурлеск / Burlesque (2010) antik_2008  2 / 0   1.94 GB   2011-03-05 18:43 
Lil`Antoni 
VIP


З нами з: 25.02.12
Востаннє: 28.09.20
Повідомлень: 847

2018-08-02 14:05  
А буде реліз якийсь в 720 чи 720 mini чи ще якійсь. Бо цей кодек не підтримує телевізор Sad (1)
ukr_anonymous 
Забанено
Забанено


З нами з: 17.04.18
Востаннє: 17.11.19
Повідомлень: 233

2018-08-02 16:25  
Lil`Antoni написано:
А буде реліз якийсь в 720 чи 720 mini чи ще якійсь. Бо цей кодек не підтримує телевізор

Від мене ні, від когось іншого - не знаю.

Lil`Antoni 
VIP


З нами з: 25.02.12
Востаннє: 28.09.20
Повідомлень: 847

2018-08-02 18:00  
ukr_anonymous написано:
Від мене ні, від когось іншого - не знаю.

Я так зрозумів. бо вже від вас було б.

Tokei 
Новенький


З нами з: 16.01.20
Востаннє: 26.09.20
Повідомлень: 1

2020-02-08 18:27  
Ваш торрент не працює
Ваш часовий пояс: GMT + 2 Години

Нова тема   Відповісти