Паперовий місяць / Paper Moon (1973) mini 1080p H.265 Ukr/Eng | sub Eng

Нові коментарі

Нова тема   Відповісти
Останній раз роздавалося Gvyntyk (2020-09-20)
Автор Повідомлення
ukr_anonymous 
Забанено
Забанено


З нами з: 17.04.18
Востаннє: 17.11.19
Повідомлень: 233

2018-06-15 10:29  
Паперовий місяць / Paper Moon (1973) mini 1080p H.265 Ukr/Eng | sub Eng

Паперовий місяць / Paper Moon (1973) mini 1080p H.265 Ukr/Eng | sub Eng


Жанр: комедія, драма
Країна: США



Кінокомпанія: Directors Company, The, Saticoy Productions, Paramount Pictures
Режисер: Пітер Богданович
Актори: Раян О'Ніл, Тейтум О'Ніл, Медлін Кан, Джон Гілерман, Ноубл Вілінґем, Джессі Лі Фалтон

Сюжет:
До дрібного шахрая Мозеса приєднується дев'ятирічна дівчинка-сирота. Разом вони подорожують і в різні нечесні способи заробляють собі на життя.


Українською мовою озвучено студією Цікава ідея на замовлення HURTOM.COM


Тривалість: 01:46:06
Якість:
Відео:
кодек: H.265 (HEVC)
розмір кадру: 1920 х 1080
бітрейт: 5 117 кб/с
бітова глибина: 10 біт
Увага! Перед завантаженням переконайтесь, що ваш пристрій відтворення (та/або ПЗ) підтримує H.265 (HEVC)

Аудіо # 1:
мова: українська | Цікава ідея
переклад: багатоголосий закадровий
кодек: WAV (PCM) 2.0
бітрейт: 1 536 кб/с

Аудіо # 2:
мова: англійська
переклад: оригінал
кодек: 2.0
бітрейт: 100 кб/с

Субтитри #1:
мова: англійська
тип: програмні (м'які)
формат: *.srt
Info
General
Unique ID : 85676189275654323086590388016474156815 (0x4074A243A564E227B17240EFC70EEF0F)
Complete name : E:\video\Paper Moon (1973) 1080p H.265 [UKR_ENG].
Format :
Format version : Version 4 / Version 2
File size : 4.97 GiB
Duration : 1 h 46 min
Overall bit rate : 6 701 kb/s
Movie name : Paper Moon
Encoded date : UTC 2018-06-14 18:46:43
Writing application : v22.0.0 ('At The End Of The World') 64-bit
Writing library : libebml v1.3.5 + v1.4.8
Cover : Yes
Attachments : cover.jpg

Video
ID : 1
Format : HEVC
Format/Info : High Efficiency Video Coding
Format profile : Main [email protected]@Main
Codec ID : V_MPEGH/ISO/HEVC
Duration : 1 h 46 min
Bit rate : 5 117 kb/s
Width : 1 920 pixels
Height : 1 080 pixels
Display aspect ratio : 16:9
Frame rate mode : Constant
Frame rate : 23.976 (24000/1001) FPS
Color space : YUV
Chroma subsampling : 4:2:0
Bit depth : 10 bits
Bits/(Pixel*Frame) : 0.103
Stream size : 3.79 GiB (76%)
Writing library : x265 2.8+3-450421921079:[Windows][MSVC 1914][64 bit] 10bit
Encoding settings : cpuid=1111039 / frame-threads=2 / numa-pools=4 / wpp / no-pmode / no-pme / no-psnr / no-ssim / log-level=2 / input-csp=1 / input-res=1920x1080 / interlace=0 / total-frames=156239 / level-idc=0 / high-tier=1 / uhd-bd=0 / ref=4 / no-allow-non-conformance / no-repeat-headers / annexb / no-aud / no-hrd / info / hash=0 / no-temporal-layers / open-gop / min-keyint=23 / keyint=250 / gop-lookahead=0 / bframes=4 / b-adapt=2 / b-pyramid / bframe-bias=0 / rc-lookahead=25 / lookahead-slices=4 / scenecut=40 / radl=0 / no-intra-refresh / ctu=64 / min-cu-size=8 / no-rect / no-amp / max-tu-size=32 / tu-inter-depth=1 / tu-intra-depth=1 / limit-tu=0 / rdoq-level=2 / dynamic-rd=0.00 / no-ssim-rd / signhide / no-tskip / nr-intra=0 / nr-inter=0 / no-constrained-intra / no-strong-intra-smoothing / max-merge=3 / limit-refs=3 / limit-modes / me=3 / subme=3 / merange=57 / temporal-mvp / weightp / no-weightb / no-analyze-src-pics / deblock=0:0 / no-sao / no-sao-non-deblock / rd=4 / no-early-skip / no-rskip / no-fast-intra / no-tskip-fast / no-cu-lossless / no-b-intra / no-splitrd-skip / rdpenalty=0 / psy-rd=2.00 / psy-rdoq=1.00 / no-rd-refine / no-lossless / cbqpoffs=0 / crqpoffs=0 / rc=abr / bitrate=5000 / qcomp=0.60 / qpstep=4 / stats-write=0 / stats-read=2 / cplxblur=20.0 / qblur=0.5 / ipratio=1.40 / pbratio=1.30 / aq-mode=3 / aq-strength=1.00 / cutree / zone-count=0 / no-strict-cbr / qg-size=32 / no-rc-grain / qpmax=69 / qpmin=0 / no-const-vbv / sar=0 / overscan=0 / videoformat=5 / range=0 / colorprim=2 / transfer=2 / colormatrix=2 / chromaloc=0 / display-window=0 / max-cll=0,0 / min-luma=0 / max-luma=1023 / log2-max-poc-lsb=8 / vui-timing-info / vui-hrd-info / slices=1 / no-opt-qp-pps / no-opt-ref-list-length-pps / no-multi-pass-opt-rps / scenecut-bias=0.05 / no-opt-cu-delta-qp / no-aq-motion / no-hdr / no-hdr-opt / no-dhdr10-opt / no-idr-recovery-sei / analysis-reuse-level=5 / scale-factor=0 / refine-intra=0 / refine-inter=0 / refine-mv=0 / no-limit-sao / ctu-info=0 / no-lowpass-dct / refine-mv-type=0 / copy-pic=1 / max-ausize-factor=1.0 / no-dynamic-refine / no-single-sei
Default : Yes
Forced : No

Audio #1
ID : 2
Format : PCM
Format settings : Little / Signed
Codec ID : A_PCM/INT/LIT
Duration : 1 h 42 min
Bit rate mode : Constant
Bit rate : 1 536 kb/s
Channel(s) : 2 channels
Sampling rate : 48.0 kHz
Frame rate : 32.000 FPS (1500 SPF)
Bit depth : 16 bits
Delay relative to video : 1 s 0 ms
Stream size : 1.10 GiB (22%)
Language : Ukrainian
Default : Yes
Forced : No

Audio #2
ID : 3
Format :
Format/Info : Advanced Audio Codec
Format profile : LC
Codec ID : A_AAC-2
Duration : 1 h 46 min
Bit rate : 100 kb/s
Channel(s) : 2 channels
Channel positions : Front: L R
Sampling rate : 48.0 kHz
Frame rate : 46.875 FPS (1024 SPF)
Compression mode : Lossy
Delay relative to video : 14 ms
Stream size : 76.1 MiB (1%)
Language : English
Default : No
Forced : No

Text
ID : 4
Format : UTF-8
Codec ID : S_TEXT/UTF8
Codec ID/Info : UTF-8 Plain Text
Duration : 1 h 40 min
Bit rate : 33 b/s
Count of elements : 630
Stream size : 24.6 KiB (0%)
Language : English
Default : No
Forced : No

Menu
00:00:00.000 : en:Chapter 00
00:00:01.918 : en:Chapter 01
00:09:20.184 : en:Chapter 02
00:19:09.690 : en:Chapter 03
00:29:27.724 : en:Chapter 04
00:39:18.773 : en:Chapter 05
00:49:32.386 : en:Chapter 06
00:59:05.625 : en:Chapter 07
01:09:53.981 : en:Chapter 08
01:20:44.381 : en:Chapter 09
01:30:06.484 : en:Chapter 10
Скріншоти



Джерело:
Особиста оцінка: 0 - не дивився


Срібний реліз (на рейтинг впливає 50% завантаженого)
 Трекер:    Зареєстрований   

Завантажити / скачати фільм українською



відео для новачків



 Зареєстрований:   2018-06-15 10:29
 Розмір:   4.97 GB 
 Оцінка фільму:   7.8/10 (Голосів: 5)
   
Інші релізи
Alinea 
Відео Гуртом - субтитрування
Відео Гуртом - субтитрування


З нами з: 18.07.09
Востаннє: 28.06.20
Повідомлень: 134

2018-06-16 09:15  
чудовий фільм!
vash1 
VIP


З нами з: 16.03.16
Востаннє: 20.09.20
Повідомлень: 263

2018-12-09 22:58  
От за що я люблю ріпи від вас - так за те що завжди додаєте українську доріжку в максимальній якості Happy

Я її щоправда потім у сконвертував і зекономив 70% місця без втрати якості
Код:
1137 MB - WAV
 337 MB -

Взагалі 16-бітні доріжки включно з багатоканальними добре тиснуться в лосслесс. На відміну від 24 бітних. Можна зекономити 50%-80% від розміру.

Не знаю, правда, чи можна на толоці додавати доріжку у через сумісність. Хоча з іншого боку HEVC менш сумісний за Happy

-Star-Lord- 
VIP


З нами з: 09.08.18
Востаннє: 21.09.20
Повідомлень: 1979

2019-01-04 16:29  
vash1 написано:
Я її щоправда потім у сконвертував і зекономив 70% місця без втрати якості

Як Ви це робите?
І чим можете підтвердити, що втрати якості немає?

Ваш часовий пояс: GMT + 2 Години

Нова тема   Відповісти