Сексмісія (Нові амазонки) / Seksmisja (1983) 720p 2xUkr/Pol | Sub Eng

Нові коментарі

Нова тема   Відповісти
Автор Повідомлення
Anonymous 







2018-06-14 21:38  
Сексмісія (Нові амазонки) / Seksmisja (1983) 720p 2xUkr/Pol | Sub Eng

Сексмісія (Нові амазонки) / Seksmisja (1983) 720p 2xUkr/Pol | Sub Eng


Жанр: комедія, фантастика, романтичний, еротика
Країна: Польща



Кінокомпанія: Zespól Filmowy "Kadr"
Режисер: Юліуш Махульскій
Актори: Єжи Штур, Ольгерд Лукашевич, Божена Стрийкувна, Богуслава Павелець, Ханна Станкувна, Беата Тишкевич та інші

Сюжет:
Прокинутися після заморожування через 60 років в суспільстві прекрасної статі, залишитися єдиними чоловіками на Землі після атомної війни - справа неабияка. Та все ж наші герої - спритний ловелас Макс та інтелігент Альберт - блискуче виходять з цієї ситуації, повернувши «Новим амазонкам» красиву, чисту планету і наново навчивши їх любові...


Тривалість: 01:56:32
Якість: 720p
Відео:
кодек:
розмір кадру: 960x718
бітрейт: 4100 кб/с

Аудіо # 1:
мова: українська
переклад: багатоголосий закадровий |
кодек: 2.0
бітрейт: 192 кб/с

Аудіо # 2:
мова: українська
переклад: одноголосий закадровий | (переклав і озвучив Жорж - м. Кривий Ріг)
кодек: 2.0
бітрейт: 192 кб/с

Аудіо # 3:
мова: польська
переклад: оригінал
кодек: 2.0
бітрейт: 192 кб/с

Субтитри:
мова: англійська
тип: програмні (м'які)
формат: *.srt
Info
General
Unique ID : 219163739427099423284150733351286471686 (0xA4E1669E04703E5A81B84F30BB8BFC06)
Format :
Format version : Version 4 / Version 2
File size : 3.79 GiB
Duration : 1 h 56 min
Overall bit rate : 4 656 kb/s
Encoded date : UTC 2018-06-14 18:30:44
Writing application : v6.1.0 ('Old Devil') built on Mar 4 2013 09:10:42
Writing library : libebml v1.3.0 + v1.4.0

Video
ID : 1
Format : AVC
Format/Info : Advanced Video Codec
Format profile : [email protected]
Format settings, CABAC : No
Format settings, ReFrames : 2 frames
Codec ID : V_MPEG4/ISO/AVC
Duration : 1 h 56 min
Bit rate : 3 988 kb/s
Width : 960 pixels
Height : 718 pixels
Display aspect ratio : 4:3
Original display aspect ratio : 16:9
Frame rate mode : Constant
Frame rate : 25.000 FPS
Color space : YUV
Chroma subsampling : 4:2:0
Bit depth : 8 bits
Scan type : Progressive
Bits/(Pixel*Frame) : 0.231
Stream size : 3.25 GiB (86%)
Default : No
Forced : No
Color range : Limited
Color primaries : BT.709
Transfer characteristics : BT.709
Matrix coefficients : BT.709
Statistics Tags Issue : v7.2.0 ('On Every Street') 64bit built on Sep 13 2014 15:52:10 2016-12-15 16:57:04 / v6.1.0 ('Old Devil') built on Mar 4 2013 09:10:42 2018-06-14 18:30:44
FromStats_BitRate : 4077807
FromStats_Duration : 01:56:32.400000000
FromStats_FrameCount : 174810
FromStats_StreamSize : 3564207327

Audio #1
ID : 2
Format : AC-3
Format/Info : Audio Coding 3
Format settings, Endianness : Big
Codec ID : A_AC3
Duration : 1 h 56 min
Bit rate mode : Constant
Bit rate : 192 kb/s
Channel(s) : 2 channels
Channel positions : Front: L R
Sampling rate : 48.0 kHz
Frame rate : 31.250 FPS (1536 spf)
Bit depth : 16 bits
Compression mode : Lossy
Stream size : 160 MiB (4%)
Title : 1+1
Language : Ukrainian
Service kind : Complete Main
Default : Yes
Forced : Yes

Audio #2
ID : 3
Format : AC-3
Format/Info : Audio Coding 3
Format settings, Endianness : Big
Codec ID : A_AC3
Duration : 1 h 56 min
Bit rate mode : Constant
Bit rate : 192 kb/s
Channel(s) : 2 channels
Channel positions : Front: L R
Sampling rate : 48.0 kHz
Frame rate : 31.250 FPS (1536 spf)
Bit depth : 16 bits
Compression mode : Lossy
Stream size : 160 MiB (4%)
Title : озвучив Жорж
Language : Ukrainian
Service kind : Complete Main
Default : No
Forced : No

Audio #3
ID : 4
Format : AC-3
Format/Info : Audio Coding 3
Format settings, Endianness : Big
Codec ID : A_AC3
Duration : 1 h 56 min
Bit rate mode : Constant
Bit rate : 192 kb/s
Channel(s) : 2 channels
Channel positions : Front: L R
Sampling rate : 48.0 kHz
Frame rate : 31.250 FPS (1536 spf)
Bit depth : 16 bits
Compression mode : Lossy
Stream size : 160 MiB (4%)
Title : Polish
Language : Polish
Service kind : Complete Main
Default : No
Forced : No
Statistics Tags Issue : v7.2.0 ('On Every Street') 64bit built on Sep 13 2014 15:52:10 2016-12-15 16:57:04 / v6.1.0 ('Old Devil') built on Mar 4 2013 09:10:42 2018-06-14 18:30:44
FromStats_BitRate : 192000
FromStats_Duration : 01:56:32.416000000
FromStats_FrameCount : 218513
FromStats_StreamSize : 167817984

Text
ID : 5
Format : UTF-8
Codec ID : S_TEXT/UTF8
Codec ID/Info : UTF-8 Plain Text
Language : English
Default : No
Forced : No
Statistics Tags Issue : v7.2.0 ('On Every Street') 64bit built on Sep 13 2014 15:52:10 2016-12-15 16:57:04 / v6.1.0 ('Old Devil') built on Mar 4 2013 09:10:42 2018-06-14 18:30:44
FromStats_BitRate : 51
FromStats_Duration : 01:53:50.480000000
FromStats_FrameCount : 1190
FromStats_StreamSize : 44077

Menu
00:00:00.000 : en:Chapter 1
00:11:44.000 : en:Chapter 2
00:21:18.000 : en:Chapter 3
00:31:52.000 : en:Chapter 4
00:40:43.000 : en:Chapter 5
00:52:29.000 : en:Chapter 6
01:01:18.000 : en:Chapter 7
01:10:57.000 : en:Chapter 8
01:21:48.000 : en:Chapter 9
01:30:42.000 : en:Chapter 10
01:38:58.000 : en:Chapter 11
01:49:17.000 : en:Chapter 12
Скріншоти






За запис звуку з ТБ дякуємо пану Krigg070
Особиста подяка пану denixx за надану матеріальну допомогу на підтримку цього і майбутніх релізів.
Джерело:
Обкладинка - п.zgryvus


Золотий реліз (завантажене не впливає на рейтинг)
 Трекер:    Зареєстрований   

Завантажити / скачати фільм українською



відео для новачків



 Зареєстрований:   2018-06-14 21:38
 Розмір:   3.79 GB 
 Оцінка фільму:   8.9/10 (Голосів: 9)
   
Інші релізи
Ваш часовий пояс: GMT + 2 Години

Нова тема   Відповісти