Велика вечірка / Le grand soir (2012) Remux 1080p Ukr/Fra | Sub Fra

Нові коментарі

Нова тема   Відповісти
Автор Повідомлення
staf777 
Попереджень: 1
Попереджень: 1 


З нами з: 16.11.16
Востаннє: 17.10.18
Повідомлень: 1632

2018-06-14 20:26  
Велика вечірка / Le grand soir (2012) Remux 1080p Ukr/Fra | Sub Fra

Велика вечірка / Le grand soir (2012) Remux 1080p Ukr/Fra | Sub Fra


Жанр: комедія
Країна: Франція, Бельгія, Німеччина



Кінокомпанія: GMT Productions, No Money Productions, Panache Productions
Режисер: Ґюстав де Керверн, Бенуа Делепін
Актори: Бенуа Пульворд, Альбер Дюпонтель, Бриджитт Фонтейн, Ареска Белькасем, Болі Ланнерс, Серж Ларіва, Жерар Депард’є, Стефані Піллонка, Міс Мінґ, Хлоя Мон, Йоланда Моро

Сюжет:
Історія про двох абсолютно несхожих один на одного братів. Нот - найстаріший панк з собакою у всій Європі, який тиняється біля торгових центрів і сподівається, що покупці пригостять його йогуртом, пивом або собачим кормом. Його брат Жан-П'єр працює продавцем у магазині постільної білизни.
Раптово Жан-П'єра звільняють з роботи і позбавляють даху над головою, після чого брати відновлюють спілкування. Борючись проти споживчого товариства, вони намагаються влаштувати революцію в торговому центрі.


Тривалість: 01:35:25
Якість: Remux 1080p
Відео:
кодек:
розмір кадру: 1920x1080
бітрейт: 21.5 Mб/с

Аудіо # 1:
мова: українська
переклад: багатоголосий закадровий
кодек: 2.0
бітрейт: 192 кб/с

Аудіо # 2:
мова: французька
переклад: оригінал
кодек: -HD MA 5.1
бітрейт: 1920 кб/с

Аудіо # 3:
мова: французька
переклад: Commentary
кодек: 2.0
бітрейт: 192 кб/с

Субтитри:
мова: французька
тип: пререндерні
формат: *.pgs
Info
General
Unique ID : 238255428269688265596636224993966266330 (0xB33E538D192CAFA4B40561717B0597DA)
Complete name : G:\Майбутні релізи\LE_GRAND_SOIR.2012.1080р.BluRay-Remux.Rus.Fre.HDCLUB\BDMV\STREAM\Le grand soir (2012) Remux 1080p[Ukr][Fra][Hurtom].
Format :
Format version : Version 4 / Version 2
File size : 15.9 GiB
Duration : 1 h 35 min
Overall bit rate mode : Variable
Overall bit rate : 23.8 Mb/s
Movie name : Le grand soir (2012) Remux 1080p[Ukr][Fra][Hurtom]
Encoded date : UTC 2018-06-14 16:35:10
Writing application : v9.8.0 ('Kuglblids') 64bit
Writing library : libebml v1.3.4 + v1.4.5
Cover : Yes
Attachments : cover.jpg

Video
ID : 1
Format : AVC
Format/Info : Advanced Video Codec
Format profile : [email protected]
Format settings : CABAC / 4 Ref Frames
Format settings, CABAC : Yes
Format settings, ReFrames : 4 frames
Format settings, GOP : M=2, N=4
Codec ID : V_MPEG4/ISO/AVC
Duration : 1 h 35 min
Bit rate mode : Variable
Bit rate : 21.5 Mb/s
Maximum bit rate : 25.0 Mb/s
Width : 1 920 pixels
Height : 1 080 pixels
Display aspect ratio : 16:9
Frame rate mode : Constant
Frame rate : 24.000 FPS
Standard : NTSC
Color space : YUV
Chroma subsampling : 4:2:0
Bit depth : 8 bits
Scan type : Progressive
Bits/(Pixel*Frame) : 0.431
Stream size : 14.3 GiB (90%)
Default : Yes
Forced : No
Color range : Limited
Color primaries : BT.709
Transfer characteristics : BT.709
Matrix coefficients : BT.709

Audio #1
ID : 2
Format : AC-3
Format/Info : Audio Coding 3
Codec ID : A_AC3
Duration : 1 h 35 min
Bit rate mode : Constant
Bit rate : 192 kb/s
Channel(s) : 2 channels
Channel positions : Front: L R
Sampling rate : 48.0 kHz
Frame rate : 31.250 FPS (1536 SPF)
Bit depth : 16 bits
Compression mode : Lossy
Stream size : 131 MiB (1%)
Title : [112. Україна]
Language : Ukrainian
Service kind : Complete Main
Default : Yes
Forced : Yes

Audio #2
ID : 3
Format :
Format/Info : Digital Theater Systems
Format profile : MA / Core
Codec ID : A_DTS
Duration : 1 h 35 min
Bit rate mode : Variable / Constant
Bit rate : 1 920 kb/s / 1 509 kb/s
Channel(s) : 6 channels
Channel positions : Front: L C R, Side: L R, LFE
Sampling rate : 48.0 kHz
Frame rate : 93.750 FPS (512 SPF)
Bit depth : 16 bits
Compression mode : Lossless / Lossy
Stream size : 1.27 GiB (8%)
Language : French
Default : No
Forced : No

Audio #3
ID : 4
Format : AC-3
Format/Info : Audio Coding 3
Codec ID : A_AC3
Duration : 1 h 35 min
Bit rate mode : Constant
Bit rate : 192 kb/s
Channel(s) : 2 channels
Channel positions : Front: L R
Sampling rate : 48.0 kHz
Frame rate : 31.250 FPS (1536 SPF)
Bit depth : 16 bits
Compression mode : Lossy
Stream size : 131 MiB (1%)
Language : French
Service kind : Complete Main
Default : No
Forced : No

Text
ID : 5
Format : PGS
Muxing mode : zlib
Codec ID : S_HDMV/PGS
Codec ID/Info : Picture based subtitle format used on BDs/HD-DVDs
Duration : 1 h 35 min
Bit rate : 9 070 b/s
Count of elements : 2392
Stream size : 6.17 MiB (0%)
Language : French
Default : No
Forced : No
Скріншоти



Запис з ТБ: POMEO
Синхронізація : Gelios

Джерело: &
Особиста оцінка: 0 - не дивився


Золотий реліз (завантажене не впливає на рейтинг)
 Трекер:    Зареєстрований   

Завантажити / скачати фільм українською



відео для новачків



 Зареєстрований:   2018-06-14 20:26
 Розмір:   15.85 GB 
 Оцінка фільму:   7.8/10 (Голосів: 4)
   
Інші релізи
   Велика вечірка / Le grand soir (2012) 720p Ukr/Fra kino.  0 / 0   4.38 GB   2013-12-26 17:56 
   Велика вечірка / Le grand soir (2012) Gelios  4 / 0   1.45 GB   2013-12-25 14:59 
kryk-v.ya. 
VIP


З нами з: 14.02.14
Востаннє: 17.10.18
Повідомлень: 613

2018-06-15 11:18  
112 робить переклади фільмів?
igor911 
Відео Гуртом
Відео Гуртом


З нами з: 18.01.08
Востаннє: 17.10.18
Повідомлень: 11242

2018-06-16 20:40  
kryk-v.ya., ні. Інфа про озвучку є в релізі першоджерелі.
Oleksa9 
VIP


З нами з: 17.05.12
Востаннє: 17.10.18
Повідомлень: 309

2018-06-17 21:22  
Кіно - горе .... Wide grin
Переклад на рівні тих, про кого стрічка:
визвали, мордою, відвали, на ліво, на право, тюрязі, чьорт, рулити, винести правду, ти прАвий...

Ваш часовий пояс: GMT + 2 Години

Нова тема   Відповісти