Розлом Сан-Андреас / San Andreas (2015) 1080p H.265 Ukr/Eng

Нові коментарі

Нова тема   Відповісти
Автор Повідомлення
-ПАН КОЦЬКИЙ- 
Свій


З нами з: 27.11.17
Востаннє: 22.09.18
Повідомлень: 50

2018-06-14 18:54  
Розлом Сан-Андреас / San Andreas (2015) 1080p H.265 Ukr/Eng



Жанр: екшн, пригоди, драма, трилер
Країна: США, Австралія, Канада



Кінокомпанія: Warner Bros., Village Roadshow Pictures, New Line Cinema
Режисер: Бред Пейтон
Актори: Двейн Джонсон, Карла Ґуджіно, Александра Даддаріо, Йоан Ґріффіт, Арчі Панджабі, Пол Джаматті, Г'юґо Джонстон-Барт, Арт Паркінсон, Вїлл Юн Лі, Кайлі Міноуґ

Сюжет:
Рей - пілот рятувального гелікоптера, який усе своє життя допомагав іншим людям. За весь час роботи він надивився на безліч моторошних речей і не раз опинявся в дуже складних ситуаціях. Незважаючи на всі перепони він поспішав на допомогу, навіть не припускаючи, що найстрашніше чекає його попереду. На Каліфорнію обрушується потужний землетрус, в результаті якого гинуть сотні людей і утворюється величезна тріщина в землі. У загальному хаосі Рею належить відшукати свою дочку, але зробити це буде дуже непросто. У надії, що його дитина все ще жива, він відправляється в смертельно небезпечну подорож через весь штат...


Тривалість: 01:54:28
Якість:
Відео:H.265 (HEVC)
розмір кадру: 1920 х 798
бітрейт: 4948 кб/с

Аудіо # 1:
мова: українська
переклад: професійний дубльований
кодек: 5.1
бітрейт: 384 кб/с

Аудіо # 2:
мова: англійська
переклад: оригінал
кодек: 5.1
бітрейт: 448 кб/с

Субтитри (Forced):
мова: українська
тип: програмні (м'які)
формат: *.srt
Info
General
Unique ID : 235308401326439829649067976617047336406 (0xB106BFE79FAE2B0ACD1258498FC7A5D6)
Format :
Format version : Version 4 / Version 2
File size : 4.62 GiB
Duration : 1 h 54 min
Overall bit rate : 5 783 kb/s
Movie name : SAN ANDREAS
Encoded date : UTC 2018-06-14 15:17:48
Writing application : v20.0.0 ('I Am The Sun') 64-bit
Writing library : libebml v1.3.5 + v1.4.8
Cover : Yes
Attachments : cover.san.andreas.jpg

Video
ID : 1
Format : HEVC
Format/Info : High Efficiency Video Coding
Format profile : [email protected]@Main
Codec ID : V_MPEGH/ISO/HEVC
Duration : 1 h 54 min
Bit rate : 4 948 kb/s
Width : 1 920 pixels
Height : 798 pixels
Display aspect ratio : 2.40:1
Frame rate mode : Constant
Frame rate : 23.976 (24000/1001) FPS
Color space : YUV
Chroma subsampling : 4:2:0
Bit depth : 8 bits
Bits/(Pixel*Frame) : 0.135
Stream size : 3.96 GiB (86%)
Writing library : x265 2.1+2-c0d91c2b4048:[Windows][GCC 6.2.0][64 bit] 8bit+10bit+12bit
Encoding settings : wpp / ctu=64 / min-cu-size=8 / max-tu-size=32 / tu-intra-depth=1 / tu-inter-depth=1 / me=1 / subme=5 / merange=57 / no-rect / no-amp / max-merge=2 / temporal-mvp / no-early-skip / rskip / rdpenalty=0 / no-tskip / no-tskip-fast / strong-intra-smoothing / no-lossless / no-cu-lossless / no-constrained-intra / no-fast-intra / open-gop / no-temporal-layers / interlace=0 / keyint=250 / min-keyint=23 / scenecut=40 / rc-lookahead=40 / lookahead-slices=5 / bframes=10 / bframe-bias=0 / b-adapt=2 / ref=5 / limit-refs=3 / no-limit-modes / weightp / no-weightb / aq-mode=1 / qg-size=32 / aq-strength=1.00 / cbqpoffs=0 / crqpoffs=0 / rd=3 / psy-rd=2.00 / rdoq-level=0 / psy-rdoq=0.00 / log2-max-poc-lsb=8 / no-rd-refine / signhide / deblock=-3:-3 / sao / no-sao-non-deblock / b-pyramid / cutree / no-intra-refresh / rc=2 / pass / bitrate=4949 / qcomp=0.60 / qpmin=0 / qpmax=69 / qpstep=4 / cplxblur=20.0 / qblur=0.5 / ipratio=1.40 / pbratio=1.30
Language : English
Default : Yes
Forced : Yes
Color range : Limited
Color primaries : BT.709
Transfer characteristics : BT.709
Matrix coefficients : BT.709

Audio #1
ID : 2
Format : AC-3
Format/Info : Audio Coding 3
Codec ID : A_AC3
Duration : 1 h 54 min
Bit rate mode : Constant
Bit rate : 384 kb/s
Channel(s) : 6 channels
Channel positions : Front: L C R, Side: L R, LFE
Sampling rate : 48.0 kHz
Frame rate : 31.250 FPS (1536 SPF)
Bit depth : 16 bits
Compression mode : Lossy
Stream size : 314 MiB (7%)
Language : Ukrainian
Service kind : Complete Main
Default : Yes
Forced : Yes

Audio #2
ID : 3
Format : AC-3
Format/Info : Audio Coding 3
Codec ID : A_AC3
Duration : 1 h 54 min
Bit rate mode : Constant
Bit rate : 448 kb/s
Channel(s) : 6 channels
Channel positions : Front: L C R, Side: L R, LFE
Sampling rate : 48.0 kHz
Frame rate : 31.250 FPS (1536 SPF)
Bit depth : 16 bits
Compression mode : Lossy
Stream size : 367 MiB (8%)
Language : English
Service kind : Complete Main
Default : No
Forced : No

Text
ID : 4
Format : UTF-8
Codec ID : S_TEXT/UTF8
Codec ID/Info : UTF-8 Plain Text
Duration : 1 h 43 min
Bit rate : 1 b/s
Count of elements : 28
Stream size : 1.15 KiB (0%)
Title : FORCED
Language : Ukrainian
Default : Yes
Forced : Yes
Скріншоти
УВАГА H.265 (HEVC)!
High Efficiency Video Coding HEVC (H.265) - представляє нове покоління енкодерів яке створювалося в тому числі для 4К ТБ.
На сучасних "залізних" плеєрах не відтворюється (і не буде)
Аналогічно на телевізорах з вбудованим програвачем медіа
На смартТВ можливо, залежить від моделі ( на універсальних арм процессорах так) необхідне відповідне ПЗ
На PC та HTPC - так, необхідно оновити кодеки та программи відтворення(преєри) - практично усі сучасні плеєри h265 вже підтримують.
Планшети, смартфони - так (відповідне ПЗ)
Джерело: &
Особиста оцінка: 10 - без зайвих вагань рекомендую всім!


 Трекер:    Зареєстрований   

Завантажити / скачати фільм українською



відео для новачків



 Зареєстрований:   2018-06-14 18:54
 Розмір:   4.62 GB 
 Оцінка фільму:   7.5/10 (Голосів: 6)
   
Інші релізи
ukr_anonymous 
Попереджень: 1
Попереджень: 1 


З нами з: 17.04.18
Востаннє: 17.10.18
Повідомлень: 222

2018-06-14 19:49  
Цитата:
Bit depth : 8 bits

Чому не 10?

Ваш часовий пояс: GMT + 2 Години

Нова тема   Відповісти