Сайт чарівниць / Mahou Shoujo Site (серії 1-2 з 12) (2018) 1080р

Нові коментарі

Нова тема   Відповісти
Автор Повідомлення
Anonymous 







2018-06-14 11:54  
Сайт чарівниць / Mahou Shoujo Site (серії 1-2 з 12) (2018) 1080р

Сайт чарівниць / Mahou Shoujo Site (серії 1-2 з 12) (2018) 1080р


Жанр: містика, драма, жахи
Країна: Японія

4.21 (102 голоси)


Кіностудія / кінокомпанія: Production doA
Режисер: Мацубаяші Тадахіто
Ролі озвучують: Ооно Юко, Аканея Хіміко, Серізава Юі, Окамото Нобухіро та інші.

Сюжет:
Головна героїня історії, Ая Асаґірі, стає жертвою знущань з боку однокласниць і старшого брата. Бажаючи змінити своє життя, дівчинка знаходить сайт чарівниць і наступного дня отримує чарівну паличку ​​у вигляді пістолета. Асаґірі вбиває учнів, які принижували її, і дізнається від однокласниці, Цуюно, про долі дівчаток, що мають палички. Завдяки отриманому обладнанню чарівниці можуть виконувати бажання, проте позбавляються життєвої сили, використовуючи його. Через деякий час стає відомо про катастрофу всесвітнього масштабу, якій може перешкодити втручання дівчат, що мають магічні здібності. Ая і Цуюно намагаються знайти небайдужих, щоб запобігти знищенню людства.


Тривалість: 1 серія: 23:45 (цілком серій: 1-2 із 12)
Перелік серій
Епізод 1: Сайт дівчаток чарівниць
Епізод 2: Буря
Якість:
Відео:
кодек:
розмір кадру: 1920 х 1080
бітрейт: 3096 кб/с

Аудіо # 1:
мова: українська
переклад: двоголосий закадровий
кодек: 2.0
бітрейт: 256 кб/с

Скріншоти




Звіт Info

Медіа інфа:
Format :
Format version : Version 4 / Version 2
File size : 588 MiB
Duration : 24 min 27 s
Overall bit rate mode : Variable
Overall bit rate : 3 361 kb/s
Encoded date : UTC 2018-06-14 06:06:43
Writing application : v9.4.0 ('Knurl') 64bit
Writing library : libebml v1.3.4 + v1.4.5
Cover : Yes
Attachments : Cover.jpg

Video
ID : 1
Format : AVC
Format/Info : Advanced Video Codec
Format profile : [email protected]
Format settings, CABAC : Yes
Format settings, ReFrames : 4 frames
Codec ID : V_MPEG4/ISO/AVC
Duration : 24 min 27 s
Bit rate mode : Variable
Bit rate : 3 096 kb/s
Maximum bit rate : 15.0 Mb/s
Width : 1 920 pixels
Height : 1 080 pixels
Display aspect ratio : 16:9
Frame rate mode : Constant
Frame rate : 23.976 (24000/1001) FPS
Color space : YUV
Chroma subsampling : 4:2:0
Bit depth : 8 bits
Scan type : Progressive
Bits/(Pixel*Frame) : 0.062
Stream size : 541 MiB (92%)
Language : Japanese
Default : Yes
Forced : No
Color range : Limited
Color primaries : BT.709
Transfer characteristics : BT.709
Matrix coefficients : BT.709

Audio
ID : 2
Format :
Format/Info : Advanced Audio Codec
Format profile : LC
Codec ID : A_AAC
Duration : 24 min 27 s
Bit rate : 256 kb/s
Channel(s) : 2 channels
Channel positions : Front: L R
Sampling rate : 48.0 kHz
Frame rate : 46.875 FPS (1024 spf)
Compression mode : Lossy
Stream size : 44.8 MiB (8%)
Title : FanVoxUA
Language : Ukrainian
Default : Yes
Forced : No
Переклад та озвучення виконано:
Переклад: AdrianZP
Ролі озвучили: Dakshina_Kali, AdrianZP
Робота зі звуком: AdrianZP
Студія:
Постер: AdrianZP

Особиста оцінка: 8 - якщо хочете жорстокості то це для вас!


Авторський реліз (завантажувати можна без реєстрації)
 Трекер:    Зареєстрований   

Завантажити / скачати аніме українською



відео для новачків



 Зареєстрований:   2018-06-21 12:20
 Розмір:   1.23 GB 
 Оцінка аніме:   7.8/10 (Голосів: 4)
   
Anonymous 







2018-06-21 12:20  
Додано 2 серію.
Ваш часовий пояс: GMT + 2 Години

Нова тема   Відповісти