Нортенґерське абатство / Northanger Abbey (2007) 720p Ukr/Eng | Sub Eng

Нові коментарі

Нова тема   Відповісти
Автор Повідомлення
Anonymous 







2018-06-13 22:38  
Нортенґерське абатство / Northanger Abbey (2007) 720p Ukr/Eng | Sub Eng

Нортенґерське абатство / Northanger Abbey (2007) 720p Ukr/Eng | Sub Eng


Жанр: драма, романтичний
Країна: Велика Британія, США, Ірландія



Кінокомпанія: Granada Television, ITV Productions, WGBH
Режисер: Джон Джонс / Jon Jones
Актори: Джеральдін Джеймс / Geraldine James, Фелісіті Джонс / Felicity Jones, Джей Джей Філд / JJ Feild, Десмонд Барріт / Desmond Barrit, Кері Малліґан / Carey Mulligan, Г'ю О`Конор / Hugh O'Conor, Ліам Каннінґем / Liam Cunningham, Вільям Бек / William Beck та інші

Сюжет:
Донька небагатих дворян, Кетрін Морланд, їде зі своєю тіткою на водний курорт в Бат, де знайомиться з Генрі Тілні, сином генерала Тілні, котрий є багатою людиною. Але генерал, азартний гравець, як стає ясно пізніше, давно проциндрив статок померлої при загадкових обставинах дружини. У Баті його невірно інформували, що Кетрін - перспективна наречена, і він запрошує її в свій маєток (Нортенґерське абатство), щоб вигідно одружити сина. Уявіть собі його розчарування, коли він дізнається, що батьки Кетрін бідні. Але Генрі і Кетрін полюбили один одного...


Тривалість: 01:32:29
Якість: 720p
Відео:
кодек:
розмір кадру: 1276х720
бітрейт: 10.9 Mb/s

Аудіо # 1:
мова: українська
переклад: багатоголосий закадровий | (аналогічне озвучування було трансльовано на телеканалах УТ-1 та ТВ4)
кодек: 2.0
бітрейт: 192 кб/с

Аудіо # 2:
мова: англійська
переклад: оригінал | Original | DVD
кодек: 5.1
бітрейт: 384 кб/с

Аудіо # 3:
мова: англійська
переклад: оригінал | Original | BD
кодек: 2.0
бітрейт: 192 кб/с

Субтитри #1:
мова: англійська
тип: програмні (м'які) | Original | BD
формат: *.srt

Субтитри #2:
мова: англійська
тип: програмні (м'які) | Original | SDH | BD
формат: *.srt
Info
General
Unique ID : 209227617067171453432765037934952578200 (0x9D67C5F6597930C78E69366DBD6BFC98)
Format :
Format version : Version 4 / Version 2
File size : 7.67 GiB
Duration : 1 h 32 min
Overall bit rate : 11.9 Mb/s
Encoded date : UTC 2018-06-13 05:56:58
Writing application : v6.1.0 ('Old Devil') built on Mar 4 2013 09:10:42
Writing library : libebml v1.3.0 + v1.4.0

Video
ID : 1
Format : AVC
Format/Info : Advanced Video Codec
Format profile : [email protected]
Format settings, CABAC : Yes
Format settings, ReFrames : 9 frames
Codec ID : V_MPEG4/ISO/AVC
Duration : 1 h 32 min
Bit rate : 10.9 Mb/s
Width : 1 276 pixels
Height : 720 pixels
Display aspect ratio : 16:9
Frame rate mode : Constant
Frame rate : 25.000 FPS
Color space : YUV
Chroma subsampling : 4:2:0
Bit depth : 8 bits
Scan type : Progressive
Bits/(Pixel*Frame) : 0.473
Stream size : 7.02 GiB (92%)
Writing library : core 148 r2705+54 9f484c1 t_mod_Custom [[email protected] X86_64]
Encoding settings : cabac=1 / ref=9 / deblock=1:-3:-3 / analyse=0x3:0x133 / me=umh / subme=10 / psy=1 / fade_compensate=0.00 / psy_rd=1.00:0.00 / mixed_ref=1 / me_range=32 / chroma_me=1 / trellis=2 / 8x8dct=1 / cqm=0 / deadzone=21,11 / fast_pskip=0 / chroma_qp_offset=-2 / threads=6 / lookahead_threads=1 / sliced_threads=0 / nr=0 / decimate=0 / interlaced=0 / bluray_compat=0 / constrained_intra=0 / fgo=0 / bframes=9 / b_pyramid=2 / b_adapt=2 / b_bias=0 / direct=3 / weightb=1 / open_gop=0 / weightp=2 / keyint=250 / keyint_min=25 / scenecut=40 / intra_refresh=0 / rc=crf / mbtree=0 / crf=17.3000 / qcomp=0.60 / qpmin=0:0:0 / qpmax=69:69:69 / qpstep=4 / ip_ratio=1.40 / pb_ratio=1.30 / aq=3:0.70 / aq-sensitivity=10.00 / aq-factor=1.00:1.00:1.00 / aq2=0 / aq3=0
Language : English
Default : Yes
Forced : No
Statistics Tags Issue : v9.4.2 ('So High') 64bit 2016-09-16 18:15:34 / v6.1.0 ('Old Devil') built on Mar 4 2013 09:10:42 2018-06-13 05:56:58
FromStats_BitRate : 11100041
FromStats_Duration : 01:32:28.040000000
FromStats_FrameCount : 138701
FromStats_StreamSize : 7697934115

Audio #1
ID : 2
Format : AC-3
Format/Info : Audio Coding 3
Format settings, Endianness : Big
Codec ID : A_AC3
Duration : 1 h 32 min
Bit rate mode : Constant
Bit rate : 192 kb/s
Channel(s) : 2 channels
Channel positions : Front: L R
Sampling rate : 48.0 kHz
Frame rate : 31.250 FPS (1536 spf)
Bit depth : 16 bits
Compression mode : Lossy
Stream size : 127 MiB (2%)
Title : Ukr 1+1
Language : Ukrainian
Service kind : Complete Main
Default : Yes
Forced : Yes

Audio #2
ID : 3
Format : AC-3
Format/Info : Audio Coding 3
Format settings, Endianness : Big
Codec ID : A_AC3
Duration : 1 h 32 min
Bit rate mode : Constant
Bit rate : 384 kb/s
Channel(s) : 6 channels
Channel positions : Front: L C R, Side: L R, LFE
Sampling rate : 48.0 kHz
Frame rate : 31.250 FPS (1536 spf)
Bit depth : 16 bits
Compression mode : Lossy
Stream size : 254 MiB (3%)
Title : Original | DVD
Language : English
Service kind : Complete Main
Default : No
Forced : No
Statistics Tags Issue : v9.4.2 ('So High') 64bit 2016-09-16 18:15:34 / v6.1.0 ('Old Devil') built on Mar 4 2013 09:10:42 2018-06-13 05:56:58
FromStats_BitRate : 384000
FromStats_Duration : 01:32:29.664000000
FromStats_FrameCount : 173427
FromStats_StreamSize : 266383872

Audio #3
ID : 4
Format : AC-3
Format/Info : Audio Coding 3
Format settings, Endianness : Big
Codec ID : A_AC3
Duration : 1 h 32 min
Bit rate mode : Constant
Bit rate : 192 kb/s
Channel(s) : 2 channels
Channel positions : Front: L R
Sampling rate : 48.0 kHz
Frame rate : 31.250 FPS (1536 spf)
Bit depth : 16 bits
Compression mode : Lossy
Stream size : 127 MiB (2%)
Title : Original | BD
Language : English
Service kind : Complete Main
Default : No
Forced : No
Statistics Tags Issue : v9.4.2 ('So High') 64bit 2016-09-16 18:15:34 / v6.1.0 ('Old Devil') built on Mar 4 2013 09:10:42 2018-06-13 05:56:58
FromStats_BitRate : 192000
FromStats_Duration : 01:32:29.024000000
FromStats_FrameCount : 173407
FromStats_StreamSize : 133176576

Text #1
ID : 5
Format : UTF-8
Codec ID : S_TEXT/UTF8
Codec ID/Info : UTF-8 Plain Text
Title : Original | BD
Language : English
Default : No
Forced : No
Statistics Tags Issue : v9.4.2 ('So High') 64bit 2016-09-16 18:15:34 / v6.1.0 ('Old Devil') built on Mar 4 2013 09:10:42 2018-06-13 05:56:58
FromStats_BitRate : 71
FromStats_Duration : 01:31:05.439000000
FromStats_FrameCount : 1279
FromStats_StreamSize : 48570

Text #2
ID : 6
Format : UTF-8
Codec ID : S_TEXT/UTF8
Codec ID/Info : UTF-8 Plain Text
Title : Original | SDH | BD
Language : English
Default : No
Forced : No
Statistics Tags Issue : v9.4.2 ('So High') 64bit 2016-09-16 18:15:34 / v6.1.0 ('Old Devil') built on Mar 4 2013 09:10:42 2018-06-13 05:56:58
FromStats_BitRate : 72
FromStats_Duration : 01:31:07.199000000
FromStats_FrameCount : 1330
FromStats_StreamSize : 49704

Menu
00:00:00.000 : :00:00:00.000
00:15:07.480 : :00:15:07.480
00:25:27.960 : :00:25:27.960
00:37:42.560 : :00:37:42.560
00:48:41.800 : :00:48:41.800
01:02:36.880 : :01:02:36.880
01:14:14.760 : :01:14:14.760
01:27:14.760 : :01:27:14.760
Скріншоти






Запис з ТБ: Sando7, POMEO;
Синхронізація: patriot2305;
Українізований постер: Gelios

Джерело:

Особиста подяка пану denixx за надану матеріальну допомогу на підтримку цього і майбутніх релізів.


 Трекер:    Зареєстрований   

Завантажити / скачати фільм українською



відео для новачків



 Зареєстрований:   2018-06-13 22:38
 Розмір:   7.67 GB 
 Оцінка фільму:   10/10 (Голосів: 1)
   
Інші релізи
   Нортенґерське абатство / Northanger Abbey (2007) drop_plz  5 / 0   1.25 GB   2018-06-13 22:38 
Ваш часовий пояс: GMT + 2 Години

Нова тема   Відповісти