Пророк / Un prophete / A Prophet (2009) mini 1080p H.265 Ukr/Fra | Sub Eng — HD українською

Пророк / Un prophete / A Prophet (2009) mini 1080p H.265 Ukr/Fra | Sub Eng

Нові коментарі

Нова тема   Відповісти
Автор Повідомлення
ukr_anonymous 
Попереджень: 1
Попереджень: 1 


З нами з: 17.04.18
Востаннє: 19.08.18
Повідомлень: 197

2018-06-13 20:55  
Пророк / Un prophete / A Prophet (2009) mini 1080p H.265 Ukr/Fra | Sub Eng

Пророк / Un prophete / A Prophet (2009) mini 1080p H.265 Ukr/Fra | Sub Eng


Жанр: драма, кримінал
Країна: Франція, Італія



Кінокомпанія: Why Not Productions, Chic Films, Page 114
Режисер: Жак Одіар
Актори: Тахар Рахім, Нільс Ареструп, Адель Беншеріф, Хайсам Якуби, Реда Катеб, Жан-Філіп Річчі, Жиль Коен, Антуан Баслер, Лейла Бехта, П'єр Лечче

Сюжет:
Засуджений до шести років в'язниці, Малік Ель Джебена здається на тлі інших ув'язнених самим «зеленим» і найбільш уразливим. Йому 19 років. Він не вміє ні писати, ні читати. За стінами в'язниці у нього немає близьких.
Все міняється, коли Лучано, лідер авторитетної банди корсиканців, вирішує доручити Маліку ряд небезпечних і ризикованих місій ... Виконання будь-якоъ з цих «місій» під пресингом корсиканців могло б зломити кого завгодно, але не його. Кожне завдання загартовує Маліка. Він швидко вчиться життя в новому для себе світі. Завойовує довіру корсиканців і мусульман. І незабаром починає виношувати власні зухвалі плани ...


Тривалість: 02:35:22
Якість:
Відео:
кодек: H.265 (HEVC)
розмір кадру: 1920 х 1036
бітрейт: 5 121 кб/с
бітова глибина: 10 біт
Увага! Перед завантаженням переконайтесь, що ваш пристрій відтворення (та/або ПЗ) підтримує H.265 (HEVC)

Аудіо # 1:
мова: українська
переклад: двоголосий закадровий
кодек: 5.1
бітрейт: 448 кб/с

Аудіо # 2:
мова: французька
переклад: оригінал
кодек: 5.1
бітрейт: 384 кб/с

Субтитри: # 1
мова: англійська
тип: програмні (м'які)
формат: VobSub
Info
General
Unique ID : 97492193059343058951817709440110739772 (0x4958503AB34D6CB7015CE4ECF704C13C)
Complete name : E:\video\A Prophet (2009) 1080p H.265 [UKR_FRE].
Format :
Format version : Version 4 / Version 2
File size : 6.46 GiB
Duration : 2 h 35 min
Overall bit rate : 5 957 kb/s
Movie name : A Prophet
Encoded date : UTC 2018-06-13 08:57:48
Writing application : v22.0.0 ('At The End Of The World') 64-bit
Writing library : libebml v1.3.5 + v1.4.8
Cover : Yes
Attachments : Cover.jpg

Video
ID : 1
Format : HEVC
Format/Info : High Efficiency Video Coding
Format profile : Main [email protected]@Main
Codec ID : V_MPEGH/ISO/HEVC
Duration : 2 h 35 min
Bit rate : 5 121 kb/s
Width : 1 920 pixels
Height : 1 036 pixels
Display aspect ratio : 1.85:1
Frame rate mode : Constant
Frame rate : 23.976 (24000/1001) FPS
Color space : YUV
Chroma subsampling : 4:2:0
Bit depth : 10 bits
Bits/(Pixel*Frame) : 0.107
Stream size : 5.56 GiB (86%)
Writing library : x265 2.8+1-478bfe2b7673:[Windows][GCC 7.3.0][64 bit] 10bit
Encoding settings : cpuid=1111039 / frame-threads=3 / numa-pools=8 / wpp / no-pmode / no-pme / no-psnr / no-ssim / log-level=2 / input-csp=1 / input-res=1920x1036 / interlace=0 / total-frames=223513 / level-idc=0 / high-tier=1 / uhd-bd=0 / ref=4 / no-allow-non-conformance / no-repeat-headers / annexb / no-aud / no-hrd / info / hash=0 / no-temporal-layers / open-gop / min-keyint=23 / keyint=250 / gop-lookahead=0 / bframes=4 / b-adapt=2 / b-pyramid / bframe-bias=0 / rc-lookahead=25 / lookahead-slices=4 / scenecut=40 / radl=0 / no-intra-refresh / ctu=64 / min-cu-size=8 / rect / no-amp / max-tu-size=32 / tu-inter-depth=1 / tu-intra-depth=1 / limit-tu=0 / rdoq-level=2 / dynamic-rd=0.00 / no-ssim-rd / signhide / no-tskip / nr-intra=0 / nr-inter=0 / no-constrained-intra / strong-intra-smoothing / max-merge=3 / limit-refs=3 / limit-modes / me=3 / subme=3 / merange=57 / temporal-mvp / weightp / no-weightb / no-analyze-src-pics / deblock=0:0 / sao / no-sao-non-deblock / rd=4 / no-early-skip / rskip / no-fast-intra / no-tskip-fast / no-cu-lossless / no-b-intra / no-splitrd-skip / rdpenalty=0 / psy-rd=2.00 / psy-rdoq=1.00 / no-rd-refine / no-lossless / cbqpoffs=0 / crqpoffs=0 / rc=abr / bitrate=5120 / qcomp=0.60 / qpstep=4 / stats-write=0 / stats-read=2 / cplxblur=20.0 / qblur=0.5 / ipratio=1.40 / pbratio=1.30 / aq-mode=3 / aq-strength=1.00 / cutree / zone-count=0 / no-strict-cbr / qg-size=32 / no-rc-grain / qpmax=69 / qpmin=0 / no-const-vbv / sar=0 / overscan=0 / videoformat=5 / range=0 / colorprim=2 / transfer=2 / colormatrix=2 / chromaloc=0 / display-window=0 / max-cll=0,0 / min-luma=0 / max-luma=1023 / log2-max-poc-lsb=8 / vui-timing-info / vui-hrd-info / slices=1 / no-opt-qp-pps / no-opt-ref-list-length-pps / multi-pass-opt-rps / scenecut-bias=0.05 / no-opt-cu-delta-qp / aq-motion / no-hdr / no-hdr-opt / no-dhdr10-opt / no-idr-recovery-sei / analysis-reuse-level=5 / scale-factor=0 / refine-intra=0 / refine-inter=0 / refine-mv=0 / no-limit-sao / ctu-info=0 / no-lowpass-dct / refine-mv-type=0 / copy-pic=1 / max-ausize-factor=1.0 / no-dynamic-refine / no-single-sei
Default : Yes
Forced : No

Audio #1
ID : 2
Format : AC-3
Format/Info : Audio Coding 3
Codec ID : A_AC3
Duration : 2 h 35 min
Bit rate mode : Constant
Bit rate : 448 kb/s
Channel(s) : 6 channels
Channel positions : Front: L C R, Side: L R, LFE
Sampling rate : 48.0 kHz
Frame rate : 31.250 FPS (1536 SPF)
Bit depth : 16 bits
Compression mode : Lossy
Stream size : 497 MiB (8%)
Language : Ukrainian
Service kind : Complete Main
Default : Yes
Forced : No

Audio #2
ID : 3
Format : AC-3
Format/Info : Audio Coding 3
Codec ID : A_AC3
Duration : 2 h 35 min
Bit rate mode : Constant
Bit rate : 384 kb/s
Channel(s) : 6 channels
Channel positions : Front: L C R, Side: L R, LFE
Sampling rate : 48.0 kHz
Frame rate : 31.250 FPS (1536 SPF)
Bit depth : 16 bits
Compression mode : Lossy
Stream size : 426 MiB (6%)
Language : French
Service kind : Complete Main
Default : No
Forced : No

Text
ID : 4
Format : VobSub
Muxing mode : zlib
Codec ID : S_VOBSUB
Codec ID/Info : Picture based subtitle format used on DVDs
Duration : 2 h 32 min
Bit rate : 5 115 b/s
Count of elements : 1584
Stream size : 5.59 MiB (0%)
Language : English
Default : Yes
Forced : No

Menu
00:00:00.000 : en:Chapter 01
00:11:04.080 : en:Chapter 02
00:23:00.003 : en:Chapter 03
00:29:41.696 : en:Chapter 04
00:37:46.180 : en:Chapter 05
00:49:14.409 : en:Chapter 06
01:01:46.703 : en:Chapter 07
01:08:47.248 : en:Chapter 08
01:21:10.949 : en:Chapter 09
01:32:47.562 : en:Chapter 10
01:40:46.707 : en:Chapter 11
01:48:02.684 : en:Chapter 12
02:00:15.625 : en:Chapter 13
02:11:16.702 : en:Chapter 14
02:19:48.171 : en:Chapter 15
02:25:53.161 : en:Chapter 16
Скріншоти



Джерело:
Особиста оцінка: 0 - не дивився


 Трекер:    Зареєстрований   

Завантажити / скачати фільм українською



відео для новачків



 Зареєстрований:   2018-08-18 02:15
 Розмір:   6.52 GB 
 Оцінка фільму:   7/10 (Голосів: 3)
   
Інші релізи
   Пророк / Un prophete / A Prophet (2009) 720p Ukr/Fra | Sub Eng Dim-ON  0 / 0   9.46 GB   2011-10-10 00:37 
   Пророк / Un prophete / A Prophet (2009) Ukr/Fra | Sub Eng Romario_O  2 / 0   2.91 GB   2011-06-05 23:02 
KZB 
Новенький


З нами з: 19.05.12
Востаннє: 18.08.18
Повідомлень: 1

2018-06-14 16:17  
Чудове кіно
55strings 
Свій


З нами з: 18.11.08
Востаннє: 18.08.18
Повідомлень: 62

2018-06-15 11:21  
Один з улюблених фільмів одного з улюблених режисерів!
hedgar2017 
Новенький


З нами з: 29.05.17
Востаннє: 19.08.18
Повідомлень: 21

2018-08-17 20:34  
Розсинхрон - доріжки несумісні.
Шкода, що таке ніхто не перевіряє.

ukr_anonymous 
Попереджень: 1
Попереджень: 1 


З нами з: 17.04.18
Востаннє: 19.08.18
Повідомлень: 197

2018-08-17 23:05  
hedgar2017
Про проблему знаю. Заміню завтра!

ukr_anonymous 
Попереджень: 1
Попереджень: 1 


З нами з: 17.04.18
Востаннє: 19.08.18
Повідомлень: 197

2018-08-18 02:16  
Виправив розсинхрон.

hedgar2017 
Новенький


З нами з: 29.05.17
Востаннє: 19.08.18
Повідомлень: 21

2018-08-19 00:03  
ukr_anonymous
Дякую, зараз заціню.

Ваш часовий пояс: GMT + 2 Години

Нова тема   Відповісти