Усе або нічого / The Longest Yard (2005) 1080p Ukr/Eng | Sub Eng — HD українською

Усе або нічого / The Longest Yard (2005) 1080p Ukr/Eng | Sub Eng

Нові коментарі

Нова тема   Відповісти
Останній раз роздавалося vovaivah89 (2018-08-21)
Автор Повідомлення
Anonymous 







2018-06-13 20:45  
Усе або нічого / The Longest Yard (2005) 1080p Ukr/Eng | Sub Eng



Жанр: комедія, кримінальний, спорт
Країна: США



Кінокомпанія: Paramount Pictures, Columbia Pictures Corporation, Happy Madison Productions
Режисер: Пітер Сіґал / Peter Segal
Актори: Адам Сендлер / Adam Sandler, Кріс Рок / Chris Rock, Барт Рейнольдс / Burt Reynolds, Неллі / Nelly, Майкл Ірвін / Michael Irvin, Волтер Вільямсон / Walter Williamson, Білл Ґолдберґ / Bill Goldberg та інші

Сюжет:
Професійний футболіст, у минулому гравець Національної Футбольної Ліги, Пол Крю, потрапляє до в'язниці за водіння автівки у нетверезому стані. Начальник в’язниці Гейзен, замислив організувати футбольний матч між охоронцями та в'язнями, і пропонує Полові зібрати свою команду. Разом з цим, він обіцяє футболісту скоротити строк, якщо перемогу отримають охоронці. Чи поступиться Крю своїми принципами заради якнайшвидшого визволення, чи гідно боротиметься за перемогу?

Рімейк відомого однойменного фільму 1974 року з Бартом Рейнольдсом http://www.imdb.com/title/tt0071771/
The Longest Yard (1974)


Тривалість: 01:53:27
Якість: 1080p [Amazon Video]
Відео:
кодек:
розмір кадру: 1920x816
бітрейт: 9 703 кб/с

Аудіо # 1: /
мова: українська
переклад: багатоголосий закадровий
кодек: 5.1
бітрейт: 448 кб/с
примітка: в доріжці 5.1 (448 кб/с) є присутня в кінці озвучка, що в другій її немає. І по якості звучання 1-ша краща.
Інформація про озвучення
Переклад і озвучення "Так треба продакшн" для каналу K1
Аудіо # 2: /
мова: українська
переклад: багатоголосий закадровий
кодек: 2.0
бітрейт: 192 кб/с
Інформація про озвучення
Переклад і озвучення "Так треба продакшн" для каналу K1
Аудіо # 3:
мова: англійська
переклад: оригінал
кодек: E- 5.1
бітрейт: 640 кб/с

Субтитри: (Full)
мова: англійська
тип: програмні (м'які)
формат: *.srt

Субтитри: (SDH)
мова: англійська
тип: програмні (м'які)
формат: *.srt
Info
General
Unique ID : 195146642143598906151903920694545502590 (0x92CFE04C5B18A0FB747F30C6EBBE517E)
Format :
Format version : Version 4 / Version 2
File size : 8.71 GiB
Duration : 1 h 53 min
Overall bit rate mode : Variable
Overall bit rate : 11.0 Mb/s
Movie name : Усе або нічого / The Longest Yard (2005) [Amazon] 1080p [Ukr.Eng Sub.Eng] [Hurtom]
Encoded date : UTC 2018-06-13 12:17:32
Writing application : v21.0.0 ('Tardigrades Will Inherit The Earth') 64-bit
Writing library : libebml v1.3.5 + v1.4.8
Cover : Yes
Attachments : Cover.jpg

Video
ID : 1
Format : AVC
Format/Info : Advanced Video Codec
Format profile : [email protected]
Format settings : CABAC / 4 Ref Frames
Format settings, CABAC : Yes
Format settings, RefFrames : 4 frames
Codec ID : V_MPEG4/ISO/AVC
Duration : 1 h 53 min
Bit rate mode : Variable
Bit rate : 9 703 kb/s
Maximum bit rate : 15.0 Mb/s
Width : 1 920 pixels
Height : 816 pixels
Display aspect ratio : 2.35:1
Frame rate mode : Constant
Frame rate : 23.976 (24000/1001) FPS
Color space : YUV
Chroma subsampling : 4:2:0
Bit depth : 8 bits
Scan type : Progressive
Bits/(Pixel*Frame) : 0.258
Stream size : 7.69 GiB (88%)
Title : The Longest Yard (2005) [Amazon] 1080p [Ukr.Eng Sub.Eng] [Hurtom]
Writing library : core 148 r2623 d5b2374
Encoding settings : cabac=1 / ref=4 / deblock=1:-1:-1 / analyse=0x3:0x133 / me=umh / subme=9 / psy=1 / psy_rd=1.00:0.15 / mixed_ref=1 / me_range=24 / chroma_me=1 / trellis=2 / 8x8dct=1 / cqm=0 / deadzone=21,11 / fast_pskip=1 / chroma_qp_offset=-3 / threads=25 / lookahead_threads=4 / sliced_threads=0 / nr=150 / decimate=1 / interlaced=0 / bluray_compat=0 / constrained_intra=0 / bframes=8 / b_pyramid=2 / b_adapt=2 / b_bias=0 / direct=3 / weightb=1 / open_gop=0 / weightp=2 / keyint=120 / keyint_min=61 / scenecut=0 / intra_refresh=0 / rc_lookahead=120 / rc=crf / mbtree=1 / crf=18.0 / qcomp=0.60 / qpmin=0 / qpmax=69 / qpstep=4 / vbv_maxrate=15000 / vbv_bufsize=31250 / crf_max=0.0 / nal_hrd=vbr / filler=0 / ip_ratio=1.40 / aq=3:1.00
Language : English
Default : Yes
Forced : No
Color range : Limited
Color primaries : BT.709
Transfer characteristics : BT.709
Matrix coefficients : BT.709

Audio #1
ID : 2
Format : AC-3
Format/Info : Audio Coding 3
Codec ID : A_AC3
Duration : 1 h 53 min
Bit rate mode : Constant
Bit rate : 448 kb/s
Channel(s) : 6 channels
Channel positions : Front: L C R, Side: L R, LFE
Sampling rate : 48.0 kHz
Frame rate : 31.250 FPS (1536 SPF)
Bit depth : 16 bits
Compression mode : Lossy
Stream size : 364 MiB (4%)
Title : MVO | Novy Kanal / K1 (TTP) | 5.1 | 448 kbps
Language : Ukrainian
Service kind : Complete Main
Default : Yes
Forced : No

Audio #2
ID : 3
Format : AC-3
Format/Info : Audio Coding 3
Codec ID : A_AC3
Duration : 1 h 53 min
Bit rate mode : Constant
Bit rate : 192 kb/s
Channel(s) : 2 channels
Channel positions : Front: L R
Sampling rate : 48.0 kHz
Frame rate : 31.250 FPS (1536 SPF)
Bit depth : 16 bits
Compression mode : Lossy
Stream size : 156 MiB (2%)
Title : MVO | Novy Kanal / K1 (TTP) | 2.0 | 192 kbps
Language : Ukrainian
Service kind : Complete Main
Default : No
Forced : No

Audio #3
ID : 4
Format : E-AC-3
Format/Info : Enhanced Audio Coding 3
Codec ID : A_EAC3
Duration : 1 h 53 min
Bit rate mode : Constant
Bit rate : 640 kb/s
Channel(s) : 6 channels
Channel positions : Front: L C R, Side: L R, LFE
Sampling rate : 48.0 kHz
Frame rate : 187.500 FPS (256 SPF)
Compression mode : Lossy
Stream size : 519 MiB (6%)
Title : Original
Language : English
Service kind : Complete Main
Default : No
Forced : No

Text #1
ID : 5
Format : UTF-8
Codec ID : S_TEXT/UTF8
Codec ID/Info : UTF-8 Plain Text
Duration : 1 h 45 min
Bit rate : 75 b/s
Count of elements : 1590
Stream size : 58.4 KiB (0%)
Title : Original (Full)
Language : English
Default : No
Forced : No

Text #2
ID : 6
Format : UTF-8
Codec ID : S_TEXT/UTF8
Codec ID/Info : UTF-8 Plain Text
Duration : 1 h 50 min
Bit rate : 84 b/s
Count of elements : 2497
Stream size : 68.4 KiB (0%)
Title : Original (SDH)
Language : English
Default : No
Forced : No

Menu
00:00:00.000 : en:1
00:04:43.000 : en:2
00:14:51.000 : en:3
00:21:30.000 : en:4
00:29:57.000 : en:5
00:35:02.000 : en:6
00:41:51.000 : en:7
00:49:19.000 : en:8
00:53:49.000 : en:9
01:00:48.000 : en:10
01:08:20.000 : en:11
01:19:21.000 : en:12
01:24:29.000 : en:13
01:31:10.000 : en:14
01:37:56.000 : en:15
01:44:08.000 : en:16
Скріншоти














Джерело: &
Особиста оцінка: 0 - не дивився
Подяки:
п.rooster, п.patriot2305 за опис та синхронізацію під HDTV
п.SweetN, п.dvorsky, п.POMEO - за звукові доріжки
п.VigbMAK (BigMak) - за наданий постер
п.??? за синхронізацію під

PG-13 - рейтинг стрічки, встановлений Американською асоціацією кінокомпаній

MPAA, англ. Motion Picture Association of America - Американська асоціація кінокомпаній

Рейтинг PG-13 — Parents strongly cautioned
Діти до 13 років допускаються на фільм тільки з батьками.

Настійне застереження батькам. Деякий матеріал може бути недоречним для перегляду дітей до 13 років. Даний рейтинг показує, що оцінений фільм може непідходити для дітей. Батьки повинні бути особливо обережні, дозволяючи своїм маленьким дітям перегляд. Грубе або тривале насильство відсутнє; сексуальна орієнтація на наготу відсутня; деякі сцени вживання наркотиків можуть бути присутніми; можна почути одиничні вживання грубої сексуальної лексики.


Не забуваємо дякувати!


 Трекер:    Зареєстрований   

Завантажити / скачати фільм українською



відео для новачків



 Зареєстрований:   2018-06-13 20:45
 Розмір:   8.71 GB 
 Оцінка фільму:   10/10 (Голосів: 3)
   
Інші релізи
   Усе або нічого / The Longest Yard (2005) 720p Ukr/Eng | Sub Eng staf777  0 / 0   3.58 GB   2017-02-18 19:58 
   Усе або нічого / The Longest Yard (2005) patriot2305  2 / 0   1.45 GB   2015-06-14 20:28 
Ваш часовий пояс: GMT + 2 Години

Нова тема   Відповісти