Присяжна / The Juror (1996) 1080p 2xUkr/Eng | Sub Eng

Нові коментарі

Нова тема   Відповісти
Автор Повідомлення
Anonymous 







2018-06-13 20:45  
Присяжна / The Juror (1996) 1080p 2xUkr/Eng | Sub Eng



Жанр: трилер, драма, мелодрама
Країна: США



Кінокомпанія: Columbia Pictures Corporation
Режисер: Брайан Гібсон
Актори: Демі Мур, Алек Болдуїн, Джозеф Гордон-Левітт, Енн Хеч, Джеймс Гандольфіні, Ліндсі Краус, Тоні Ло Бьянко, Майкл Константін, Метт Кревен, Тодд Зусман, Майкл Рісполі, Джулі Халстон, Френк Адоніс, Меттью Коулз, Поллі Адамс, Джек Гілпін, Чак Купер, Том Сігнореллі, Френсіс Фостер

Сюжет:
Енні, молода жінка-присяжна, знайомиться з приємним молодиком. Розумний і впевнений у собі, він завойовує дівчину, але пристрасть, що народилася в її серці, може зіграти з нею злий жарт... Вона не знає, що її коханий працює на мафію, а зв’язок із нею потрібен йому для таємної мети – звільнення ватажка злочинного угруповання і визнання його у суді невинуватим. Тепер їй треба пожертвувати правдою задля порятунку сина від злочинця-психопата.


Тривалість: 01:57:59
Якість: 1080p [Amazon Video]
Відео:
кодек:
розмір кадру: 1920x1080
бітрейт: 11.7 Мб/с

Аудіо # 1:
мова: українська
переклад: багатоголосий закадровий
кодек: 2.0
бітрейт: 192 кб/с

Аудіо # 2:
мова: українська
переклад: двоголосий закадровий
кодек: 2.0
бітрейт: 192 кб/с

Аудіо # 3:
мова: англійська
переклад: оригінал
кодек: E- 5.1
бітрейт: 640 кб/с

Субтитри: (SDH)
мова: англійська
тип: програмні (м'які)
формат: *.srt
Info
General
Unique ID : 330445267927662401527937017024312507102 (0xF8997192EF45229DBFD2FC29601FFADE)
Format :
Format version : Version 4 / Version 2
File size : 10.5 GiB
Duration : 1 h 57 min
Overall bit rate mode : Variable
Overall bit rate : 12.8 Mb/s
Movie name : Присяжна / The Juror (1996) [Amazon] 1080p [2xUkr.Eng Sub.Eng] [Hurtom]
Encoded date : UTC 2018-06-11 10:39:10
Writing application : v21.0.0 ('Tardigrades Will Inherit The Earth') 64-bit
Writing library : libebml v1.3.5 + v1.4.8
Cover : Yes
Attachments : Cover.jpg

Video
ID : 1
Format : AVC
Format/Info : Advanced Video Codec
Format profile : [email protected]
Format settings : CABAC / 4 Ref Frames
Format settings, CABAC : Yes
Format settings, RefFrames : 4 frames
Codec ID : V_MPEG4/ISO/AVC
Duration : 1 h 57 min
Bit rate mode : Variable
Bit rate : 11.7 Mb/s
Maximum bit rate : 15.0 Mb/s
Width : 1 920 pixels
Height : 1 080 pixels
Display aspect ratio : 16:9
Frame rate mode : Constant
Frame rate : 23.976 (24000/1001) FPS
Color space : YUV
Chroma subsampling : 4:2:0
Bit depth : 8 bits
Scan type : Progressive
Bits/(Pixel*Frame) : 0.236
Stream size : 9.67 GiB (92%)
Title : The Juror (1996) [Amazon] 1080p [2xUkr.Eng Sub.Eng] [Hurtom]
Writing library : core 148 r2623 d5b2374
Encoding settings : cabac=1 / ref=4 / deblock=1:-1:-1 / analyse=0x3:0x133 / me=umh / subme=9 / psy=1 / psy_rd=1.00:0.15 / mixed_ref=1 / me_range=24 / chroma_me=1 / trellis=2 / 8x8dct=1 / cqm=0 / deadzone=21,11 / fast_pskip=1 / chroma_qp_offset=-3 / threads=34 / lookahead_threads=5 / sliced_threads=0 / nr=150 / decimate=1 / interlaced=0 / bluray_compat=0 / constrained_intra=0 / bframes=8 / b_pyramid=2 / b_adapt=2 / b_bias=0 / direct=3 / weightb=1 / open_gop=0 / weightp=2 / keyint=120 / keyint_min=61 / scenecut=0 / intra_refresh=0 / rc_lookahead=120 / rc=crf / mbtree=1 / crf=18.0 / qcomp=0.60 / qpmin=0 / qpmax=69 / qpstep=4 / vbv_maxrate=15000 / vbv_bufsize=31250 / crf_max=0.0 / nal_hrd=vbr / filler=0 / ip_ratio=1.40 / aq=3:1.00
Language : English
Default : Yes
Forced : No
Color range : Limited
Color primaries : BT.709
Transfer characteristics : BT.709
Matrix coefficients : BT.709

Audio #1
ID : 2
Format : AC-3
Format/Info : Audio Coding 3
Codec ID : A_AC3
Duration : 1 h 57 min
Bit rate mode : Constant
Bit rate : 192 kb/s
Channel(s) : 2 channels
Channel positions : Front: L R
Sampling rate : 48.0 kHz
Frame rate : 31.250 FPS (1536 SPF)
Bit depth : 16 bits
Compression mode : Lossy
Stream size : 162 MiB (2%)
Title : MVO | NTN | 2.0 | 192 kbps
Language : Ukrainian
Service kind : Complete Main
Default : Yes
Forced : No

Audio #2
ID : 3
Format : AC-3
Format/Info : Audio Coding 3
Codec ID : A_AC3
Duration : 1 h 57 min
Bit rate mode : Constant
Bit rate : 192 kb/s
Channel(s) : 2 channels
Channel positions : Front: L R
Sampling rate : 48.0 kHz
Frame rate : 31.250 FPS (1536 SPF)
Bit depth : 16 bits
Compression mode : Lossy
Stream size : 162 MiB (2%)
Title : DVO | 1+1 | 2.0 | 192 kbps
Language : Ukrainian
Service kind : Complete Main
Default : No
Forced : No

Audio #3
ID : 4
Format : E-AC-3
Format/Info : Enhanced Audio Coding 3
Codec ID : A_EAC3
Duration : 1 h 57 min
Bit rate mode : Constant
Bit rate : 640 kb/s
Channel(s) : 6 channels
Channel positions : Front: L C R, Side: L R, LFE
Sampling rate : 48.0 kHz
Frame rate : 187.500 FPS (256 SPF)
Compression mode : Lossy
Stream size : 540 MiB (5%)
Title : Original
Language : English
Service kind : Complete Main
Default : No
Forced : No

Text
ID : 5
Format : UTF-8
Codec ID : S_TEXT/UTF8
Codec ID/Info : UTF-8 Plain Text
Duration : 1 h 56 min
Bit rate : 43 b/s
Count of elements : 880
Stream size : 37.5 KiB (0%)
Title : Original (SDH)
Language : English
Default : No
Forced : No

Menu
00:00:00.000 : :Chapter 1
00:02:38.491 : :Chapter 2
00:04:48.204 : :Chapter 3
00:12:13.065 : :Chapter 4
00:13:19.298 : :Chapter 5
00:18:18.847 : :Chapter 6
00:24:18.498 : :Chapter 7
00:25:58.473 : :Chapter 8
00:35:14.236 : :Chapter 9
00:43:24.268 : :Chapter 10
00:45:33.063 : :Chapter 11
00:52:29.229 : :Chapter 12
00:54:51.162 : :Chapter 13
00:56:29.761 : :Chapter 14
01:01:23.888 : :Chapter 15
01:04:22.650 : :Chapter 16
01:09:54.064 : :Chapter 17
01:16:54.526 : :Chapter 18
01:21:39.227 : :Chapter 19
01:23:54.696 : :Chapter 20
01:27:14.395 : :Chapter 21
01:30:18.371 : :Chapter 22
01:35:55.040 : :Chapter 23
01:37:56.245 : :Chapter 24
01:40:06.083 : :Chapter 25
01:43:36.501 : :Chapter 26
01:45:03.755 : :Chapter 27
01:49:44.911 : :Chapter 28
Скріншоти










Джерело: &
Особиста оцінка: 0 - не дивився
Подяки:
п.olgaya за наданий сирий звук №2
п.JACKUS за опис та синхронізацію під DVD
п.bodia87 за доріжку №1 та за синхронізацію доріжок №1 та 2 під
п.olgaya за постер

R - рейтинг стрічки, встановлений Американською асоціацією кінокомпаній

MPAA, англ. Motion Picture Association of America - Американська асоціація кінокомпаній

Рейтинг R — Restricted
Підлітки до 18 років допускаються на фільм тільки у супроводі одного з батьків, або їхнього законного представника.

Обмеження — до 18 років потрібний супровід одного з батьків або дорослого опікуна (вік може змінюватися в деяких регіонах). Даний рейтинг показує, що оціночна комісія вирішила, що деякий матеріал цього фільму призначається для дорослих. Батьки повинні більше дізнатися про фільм перш, ніж узяти на його перегляд дітей. Рейтинг R також може бути призначений через використовувану у фільмі мову, теми насильства, сексу або зображення вживання наркотиків.


Не забуваємо дякувати!


Срібний реліз (на рейтинг впливає 50% завантаженого)
 Трекер:    Зареєстрований   

Завантажити / скачати фільм українською



відео для новачків



 Зареєстрований:   2018-06-13 20:45
 Розмір:   10.52 GB 
 Оцінка фільму:   7/10 (Голосів: 3)
   
Інші релізи
   Присяжна / The Juror (1996) 720p 2xUkr/Eng | sub Eng bodia87  0 / 0   3.48 GB   2018-05-01 22:25 
   Присяжна / The Juror (1996) AVC 2xUkr/Eng | sub Eng bodia87  6 / 0   2.54 GB   2018-04-02 22:06 
   Присяжна / The Juror (1996) JACKUS  1 / 0   1.46 GB   2010-11-21 00:04 
Ваш часовий пояс: GMT + 2 Години

Нова тема   Відповісти