Розумник Вілл Гантінґ / Good Will Hunting (1997) mini 1080p H.265 Ukr/Eng | sub Ukr/Eng

Нові коментарі

Нова тема   Відповісти
Автор Повідомлення
ukr_anonymous 
Попереджень: 1
Попереджень: 1 


З нами з: 17.04.18
Востаннє: 25.04.19
Повідомлень: 234

2018-06-13 19:27  
Розумник Вілл Гантінґ / Good Will Hunting (1997) mini 1080p H.265 Ukr/Eng | sub Ukr/Eng

Розумник Вілл Гантінґ / Good Will Hunting (1997) mini 1080p H.265 Ukr/Eng | sub Ukr/Eng


Жанр: драма
Країна: США



Кінокомпанія: Be Gentlemen Limited Partnership, Lawrence Bender Productions, Miramax Films
Режисер: Гас Ван Сент
Актори: Метт Деймон, Робін Вільямс, Бен Аффлек, Стеллан Скарсгард, Мінні Драйвер, Кейсі Аффлек, Коул Хаузер, Джон Майтон

Сюжет:
Вілл Хантінг — 20-річний хлопець з Бостона, який раз за разом вплутується в неприємні історії. Несподівано він відкриває в собі феноменальні математичні здібності. Коли поліція заарештовує його за чергову бійку, професор математики бере його під свою опіку, але за однієї умови: Вілл повинен пройті курс психотерапії. Сеанси «перевиховання», що почалися з недовіри, поступово переростають в дружбу між Віллом і його наставником.


Тривалість: 02:06:33
Якість:
Відео:
кодек: H.265 (HEVC)
розмір кадру: 1920 х 1040
бітрейт: 4 644 кб/с
бітова глибина: 10 біт
Увага! Перед завантаженням переконайтесь, що ваш пристрій відтворення (та/або ПЗ) підтримує H.265 (HEVC)

Аудіо # 1:
мова: українська
переклад: багатоголосий закадровий
кодек: 5.1 ефект
бітрейт: 448 кб/с

Аудіо # 2:
мова: англійська
переклад: оригінал
кодек: 5.1
бітрейт: 224 кб/с

Субтитри # 1:
мова: українська
тип: програмні (м'які)
формат: *.srt

Субтитри # 2:
мова: англійська
тип: програмні (м'які)
формат: *.srt
Info
General
Unique ID : 169921238630087041498832617950844393019 (0x7FD5A3E1F3BC968E73A33EBFD8D9963B)
Complete name : E:\video\Good Will Hunting (1997) 1080p H.265 [UKR_ENG].
Format :
Format version : Version 4 / Version 2
File size : 4.70 GiB
Duration : 2 h 6 min
Overall bit rate : 5 319 kb/s
Movie name : Good Will Hunting
Encoded date : UTC 2018-06-13 11:47:10
Writing application : v22.0.0 ('At The End Of The World') 64-bit
Writing library : libebml v1.3.5 + v1.4.8
Cover : Yes
Attachments : Cover.jpg

Video
ID : 1
Format : HEVC
Format/Info : High Efficiency Video Coding
Format profile : Main [email protected]@Main
Codec ID : V_MPEGH/ISO/HEVC
Duration : 2 h 6 min
Bit rate : 4 644 kb/s
Width : 1 920 pixels
Height : 1 040 pixels
Display aspect ratio : 1.85:1
Frame rate mode : Constant
Frame rate : 23.976 (24000/1001) FPS
Color space : YUV
Chroma subsampling : 4:2:0
Bit depth : 10 bits
Bits/(Pixel*Frame) : 0.097
Stream size : 4.11 GiB (87%)
Writing library : x265 2.6+37-1949157705ce:[Windows][GCC 7.3.0][64 bit] 10bit
Encoding settings : cpuid=1173503 / frame-threads=3 / numa-pools=8 / wpp / no-pmode / no-pme / no-psnr / no-ssim / log-level=2 / input-csp=1 / input-res=1920x1040 / interlace=0 / total-frames=182060 / level-idc=0 / high-tier=1 / uhd-bd=0 / ref=4 / no-allow-non-conformance / no-repeat-headers / annexb / no-aud / no-hrd / info / hash=0 / no-temporal-layers / open-gop / min-keyint=23 / keyint=250 / gop-lookahead=0 / bframes=4 / b-adapt=2 / b-pyramid / bframe-bias=0 / rc-lookahead=25 / lookahead-slices=4 / scenecut=40 / radl=0 / no-intra-refresh / ctu=64 / min-cu-size=8 / rect / no-amp / max-tu-size=32 / tu-inter-depth=1 / tu-intra-depth=1 / limit-tu=0 / rdoq-level=2 / dynamic-rd=0.00 / no-ssim-rd / signhide / no-tskip / nr-intra=0 / nr-inter=0 / no-constrained-intra / strong-intra-smoothing / max-merge=3 / limit-refs=3 / limit-modes / me=3 / subme=3 / merange=57 / temporal-mvp / weightp / no-weightb / no-analyze-src-pics / deblock=0:0 / sao / no-sao-non-deblock / rd=4 / no-early-skip / rskip / no-fast-intra / no-tskip-fast / no-cu-lossless / no-b-intra / no-splitrd-skip / rdpenalty=0 / psy-rd=2.00 / psy-rdoq=1.00 / no-rd-refine / no-lossless / cbqpoffs=0 / crqpoffs=0 / rc=abr / bitrate=4643 / qcomp=0.60 / qpstep=4 / stats-write=0 / stats-read=2 / cplxblur=20.0 / qblur=0.5 / ipratio=1.40 / pbratio=1.30 / aq-mode=2 / aq-strength=1.00 / cutree / zone-count=0 / no-strict-cbr / qg-size=32 / no-rc-grain / qpmax=69 / qpmin=0 / no-const-vbv / sar=0 / overscan=0 / videoformat=5 / range=0 / colorprim=2 / transfer=2 / colormatrix=2 / chromaloc=0 / display-window=0 / max-cll=0,0 / min-luma=0 / max-luma=1023 / log2-max-poc-lsb=8 / vui-timing-info / vui-hrd-info / slices=1 / no-opt-qp-pps / no-opt-ref-list-length-pps / multi-pass-opt-rps / scenecut-bias=0.05 / no-opt-cu-delta-qp / aq-motion / no-hdr / no-hdr-opt / no-dhdr10-opt / analysis-reuse-level=5 / scale-factor=0 / refine-intra=0 / refine-inter=0 / refine-mv=0 / no-limit-sao / ctu-info=0 / no-lowpass-dct / refine-mv-type=0 / copy-pic=1
Default : Yes
Forced : No

Audio #1
ID : 2
Format : AC-3
Format/Info : Audio Coding 3
Codec ID : A_AC3
Duration : 2 h 6 min
Bit rate mode : Constant
Bit rate : 448 kb/s
Channel(s) : 6 channels
Channel positions : Front: L C R, Side: L R, LFE
Sampling rate : 48.0 kHz
Frame rate : 31.250 FPS (1536 SPF)
Bit depth : 16 bits
Compression mode : Lossy
Stream size : 406 MiB (8%)
Title : Inter
Language : Ukrainian
Service kind : Complete Main
Default : Yes
Forced : No

Audio #2
ID : 3
Format : AC-3
Format/Info : Audio Coding 3
Codec ID : A_AC3
Duration : 2 h 6 min
Bit rate mode : Constant
Bit rate : 224 kb/s
Channel(s) : 6 channels
Channel positions : Front: L C R, Side: L R, LFE
Sampling rate : 48.0 kHz
Frame rate : 31.250 FPS (1536 SPF)
Bit depth : 16 bits
Compression mode : Lossy
Stream size : 203 MiB (4%)
Title : Original
Language : English
Service kind : Complete Main
Default : No
Forced : No

Text #1
ID : 4
Format : UTF-8
Codec ID : S_TEXT/UTF8
Codec ID/Info : UTF-8 Plain Text
Duration : 2 h 5 min
Bit rate : 104 b/s
Count of elements : 1398
Stream size : 96.5 KiB (0%)
Language : Ukrainian
Default : Yes
Forced : No

Text #2
ID : 5
Format : UTF-8
Codec ID : S_TEXT/UTF8
Codec ID/Info : UTF-8 Plain Text
Duration : 1 h 59 min
Bit rate : 88 b/s
Count of elements : 1759
Stream size : 77.8 KiB (0%)
Language : English
Default : No
Forced : No

Menu
00:00:00.000 : en:Chapter 01
00:09:43.499 : en:Chapter 02
00:15:46.403 : en:Chapter 03
00:28:43.388 : en:Chapter 04
00:37:14.982 : en:Chapter 05
00:52:44.411 : en:Chapter 06
00:59:01.329 : en:Chapter 07
01:03:04.572 : en:Chapter 08
01:08:22.348 : en:Chapter 09
01:14:25.043 : en:Chapter 10
01:17:54.878 : en:Chapter 11
01:22:44.584 : en:Chapter 12
01:43:49.806 : en:Chapter 13
01:52:34.706 : en:Chapter 14
01:54:44.836 : en:Chapter 15
01:58:18.049 : en:Chapter 16
Скріншоти



Джерело:
Особиста оцінка: 0 - не дивився


Срібний реліз (на рейтинг впливає 50% завантаженого)
 Трекер:    Зареєстрований   

Завантажити / скачати фільм українською



відео для новачків



 Зареєстрований:   2018-06-13 19:27
 Розмір:   4.7 GB 
 Оцінка фільму:   5.5/10 (Голосів: 4)
   
deus207 
Частий відвідувач


З нами з: 19.03.10
Востаннє: 26.04.19
Повідомлень: 26

2019-03-08 20:30  
Постер порадував.
Метт просто Демон Happy

V_Plum 
Новенький


З нами з: 16.09.10
Востаннє: 24.04.19
Повідомлень: 3

2019-03-09 14:56  
Роздача буде?
Ваш часовий пояс: GMT + 2 Години

Нова тема   Відповісти